快捷导航
查看: 228|回复: 20

[剧情] 进出口/寂寞边界 Import.Export.2007.PROPER.1080p.BluRay.x264-USURY 10.93GB

[复制链接]
  • TA的每日心情

    2021-4-27 18:29
  • 签到天数: 36 天

    [LV.5]常住居民I

    1162

    主题

    1198

    帖子

    2060

    积分

    发布组

    积分
    2060
    发表于 2021-4-25 23:01:36 | 显示全部楼层 |阅读模式
    1. 帖子完整标题:进出口/寂寞边界 Import.Export.2007.PROPER.1080p.BluRay.x264-USURY 10.93GB
    复制代码
    进出口/寂寞边界 Import.Export.2007.PROPER.1080p.BluRay.x264-USURY 10.93GB-1.png


    译  名 进出口/寂寞边界
    片  名 Import/Export
    年  代 2007
    产  地 奥地利,法国,德国
    类  别 剧情
    语  言 德语,斯洛伐克语,俄语,英语
    上映日期 2007-11-09
    IMDb评分  7.1/10 from 5369 users
    IMDb链接  https://www.imdb.com/title/tt0459102/
    豆瓣评分 7.3/10 from 1726 users
    豆瓣链接 https://movie.douban.com/subject/2002734/
    片  长 141 分钟
    导  演 尤里西·塞德尔 Ulrich Seidl
    编  剧 尤里西·塞德尔 Ulrich Seidl
    主  演 玛利亚·霍夫斯塔尔 Maria Hofst?tter
           格奥尔格·弗里德里希 Georg Friedrich
           Thomas Nash
           布里吉特·克雷 Brigitte Kren
           佩特拉·莫泽 Petra Morzé
           苏珊娜·洛塔尔 Susanne Lothar
           Dirk Stermann
           赫伯特·弗里奇 Herbert Fritsch
           保罗·霍夫曼 Paul Hofmann

    标  签 奥地利 | 纪录片 | 社會寫實 | 德国 | 欧洲电影 | 剧情 | 2007 | 奥地利电影

    简  介

      在乌克兰的单亲妈妈奥尔加(Ekateryna Rak 饰)不满在医院的低薪工作,到了奥地利寻求更好的生活可能性,她做色情视频女郎,又到富人家当保姆,在清洁公司也工作过,生活始终颠沛,遭遇了各种波折。奥尔加去医院做清洁工,她所打扫的病房住的都是老人。在生命末端的老人和处于生活边缘的奥尔加都是孤独且绝望的。与此同时,奥地利的年轻人保罗(Paul Hofmann 饰)在国内活的十分辛苦,为了狗他和女朋友决裂,又被人追着索要欠债,保罗身无分文,遭人殴打和戏弄。走投无路的保罗前往乌克兰。在宾馆昏暗的房间里,保罗看着继父绕有兴趣的和妓女逗乐,对此他毫无兴趣,只想着钱的事......
      
      乌克兰与奥地利的两名年轻人奔赴彼此的国家,但都难以摆脱生存的逼仄。

    获奖情况

      第60届戛纳电影节 ?(2007)
      主竞赛单元金棕榈奖(提名) 尤里西·塞德尔
    1. Video
    2. ID                                       : 1
    3. Format                                   : AVC
    4. Format/Info                              : Advanced Video Codec
    5. Format profile                           : High@L4
    6. Format settings                          : CABAC / 4 Ref Frames
    7. Format settings, CABAC                   : Yes
    8. Format settings, Reference frames        : 4 frames
    9. Codec ID                                 : V_MPEG4/ISO/AVC
    10. Duration                                 : 2 h 21 min
    11. Bit rate                                 : 9 555 kb/s
    12. Width                                    : 1 920 pixels
    13. Height                                   : 1 072 pixels
    14. Display aspect ratio                     : 16:9
    15. Frame rate mode                          : Constant
    16. Frame rate                               : 23.976 (24000/1001/189150) FPS
    17. Color space                              : YUV
    18. Chroma subsampling                       : 4:2:0
    19. Bit depth                                : 8 bits
    20. Scan type                                : Progressive
    21. Bits/(Pixel*Frame)                       : 0.194
    22. Stream size                              : 9.44 GiB (86%)
    23. Writing library                          : x264 core 155 r2901 7d0ff22
    24. Encoding settings                        : cabac=1 / ref=4 / deblock=1:-3:-3 / analyse=0x3:0x133 / me=umh / subme=9 / psy=1 / psy_rd=1.00:0.00 / mixed_ref=1 / me_range=16 / chroma_me=1 / trellis=2 / 8x8dct=1 / cqm=0 / deadzone=21,11 / fast_pskip=0 / chroma_qp_offset=-2 / threads=24 / lookahead_threads=2 / sliced_threads=0 / nr=0 / decimate=1 / interlaced=0 / bluray_compat=0 / constrained_intra=0 / bframes=3 / b_pyramid=2 / b_adapt=1 / b_bias=0 / direct=3 / weightb=1 / open_gop=0 / weightp=2 / keyint=240 / keyint_min=24 / scenecut=40 / intra_refresh=0 / rc_lookahead=50 / rc=2pass / mbtree=1 / bitrate=9555 / ratetol=1.0 / qcomp=0.60 / qpmin=0 / qpmax=69 / qpstep=4 / cplxblur=20.0 / qblur=0.5 / ip_ratio=1.40 / aq=1:1.00
    25. Language                                 : English
    26. Default                                  : Yes
    27. Forced                                   : No

    28. Audio
    29. ID                                       : 2
    30. Format                                   : DTS
    31. Format/Info                              : Digital Theater Systems
    32. Codec ID                                 : A_DTS
    33. Duration                                 : 2 h 21 min
    34. Bit rate mode                            : Constant
    35. Bit rate                                 : 1 509 kb/s
    36. Channel(s)                               : 6 channels
    37. Channel layout                           : C L R Ls Rs LFE
    38. Sampling rate                            : 48.0 kHz
    39. Frame rate                               : 93.750 FPS (512 SPF)
    40. Bit depth                                : 24 bits
    41. Compression mode                         : Lossy
    42. Stream size                              : 1.49 GiB (14%)
    43. Language                                 : German
    44. Default                                  : Yes
    45. Forced                                   : No

    46. Text
    47. ID                                       : 3
    48. Format                                   : UTF-8
    49. Codec ID                                 : S_TEXT/UTF8
    50. Codec ID/Info                            : UTF-8 Plain Text
    51. Duration                                 : 2 h 16 min
    52. Bit rate                                 : 34 b/s
    53. Count of elements                        : 1373
    54. Stream size                              : 34.7 KiB (0%)
    55. Title                                    : English
    56. Language                                 : English
    57. Default                                  : Yes
    58. Forced                                   : Yes

    59. Menu
    60. 00:00:00.000                             : en:00:00:00.000
    61. 00:04:40.113                             : en:00:04:40.113
    62. 00:08:06.486                             : en:00:08:06.486
    63. 00:12:27.372                             : en:00:12:27.372
    64. 00:17:23.459                             : en:00:17:23.459
    65. 00:25:48.672                             : en:00:25:48.672
    66. 00:32:11.972                             : en:00:32:11.972
    67. 00:38:07.076                             : en:00:38:07.076
    68. 00:41:42.083                             : en:00:41:42.083
    69. 00:43:28.314                             : en:00:43:28.314
    70. 00:46:31.664                             : en:00:46:31.664
    71. 00:48:17.645                             : en:00:48:17.645
    72. 00:50:20.559                             : en:00:50:20.559
    73. 01:01:28.226                             : en:01:01:28.226
    74. 01:03:28.805                             : en:01:03:28.805
    75. 01:10:44.407                             : en:01:10:44.407
    76. 01:17:49.707                             : en:01:17:49.707
    77. 01:23:32.591                             : en:01:23:32.591
    78. 01:25:31.084                             : en:01:25:31.084
    79. 01:32:01.099                             : en:01:32:01.099
    80. 01:37:11.034                             : en:01:37:11.034
    81. 01:42:02.616                             : en:01:42:02.616
    82. 01:51:00.821                             : en:01:51:00.821
    83. 01:53:49.281                             : en:01:53:49.281
    84. 02:03:55.928                             : en:02:03:55.928
    85. 02:07:37.650                             : en:02:07:37.650
    86. 02:09:57.707                             : en:02:09:57.707
    87. 02:14:06.914                             : en:02:14:06.914
    88. 02:14:53.919                             : en:02:14:53.919
    复制代码

    进出口/寂寞边界 Import.Export.2007.PROPER.1080p.BluRay.x264-USURY 10.93GB-2.png
    本帖隐藏的内容需要VIP会员才可浏览,您需要升级才可浏览,点击这里升级VIP





    回复

    使用道具 举报

    该用户从未签到

    0

    主题

    3681

    帖子

    2875

    积分

    金牌会员

    Rank: 6Rank: 6

    积分
    2875
    发表于 2021-4-25 23:01:57 | 显示全部楼层

    下载保存,谢谢楼主

    点评

    QQ 12615137 =出-售 桑=拿=女 按=摩=女 模=特= 外=围=女=资=料 良=家 学=生=妹=信=息  发表于 3 天前
    回复 支持 反对

    使用道具 举报

    该用户从未签到

    0

    主题

    2万

    帖子

    2万

    积分

    论坛元老

    Rank: 8Rank: 8

    积分
    22944
    发表于 2021-4-25 23:59:56 | 显示全部楼层
    回复 支持 反对

    使用道具 举报

    该用户从未签到

    0

    主题

    3681

    帖子

    2875

    积分

    金牌会员

    Rank: 6Rank: 6

    积分
    2875
    发表于 2021-4-26 00:31:40 | 显示全部楼层
    回复 支持 反对

    使用道具 举报

  • TA的每日心情
    开心
    12 小时前
  • 签到天数: 80 天

    [LV.6]常住居民II

    0

    主题

    257

    帖子

    896

    积分

    高级会员

    Rank: 4

    积分
    896
    发表于 2021-4-26 00:32:37 | 显示全部楼层
    回复 支持 反对

    使用道具 举报

    该用户从未签到

    0

    主题

    765

    帖子

    610

    积分

    高级会员

    Rank: 4

    积分
    610
    发表于 2021-4-26 00:32:37 | 显示全部楼层
    回复 支持 反对

    使用道具 举报

    该用户从未签到

    0

    主题

    3848

    帖子

    2186

    积分

    金牌会员

    Rank: 6Rank: 6

    积分
    2186
    发表于 2021-4-26 01:34:09 | 显示全部楼层
    这个帖子不回对不起自己!我想我是一天也不能离开蓝光电影网
    回复 支持 反对

    使用道具 举报

    该用户从未签到

    0

    主题

    1847

    帖子

    1500

    积分

    金牌会员

    Rank: 6Rank: 6

    积分
    1500
    发表于 2021-4-26 08:00:27 | 显示全部楼层
    回复 支持 反对

    使用道具 举报

    该用户从未签到

    0

    主题

    2万

    帖子

    2万

    积分

    论坛元老

    Rank: 8Rank: 8

    积分
    22944
    发表于 2021-4-26 08:34:40 | 显示全部楼层
    回复 支持 反对

    使用道具 举报

    该用户从未签到

    0

    主题

    3809

    帖子

    2888

    积分

    金牌会员

    Rank: 6Rank: 6

    积分
    2888
    发表于 2021-4-26 08:44:34 | 显示全部楼层
    回复 支持 反对

    使用道具 举报

    懒得打字嘛,点击右侧快捷回复 【右侧内容,后台自定义】
    您需要登录后才可以回帖 登录 | 立即注册

    本版积分规则

    郑重声明,本站所有作品片源来自互联网公开渠道,均为网友上传交流学习,影视版权均归原电影公司所有,如有侵犯版权,请与 2322694662@qq.com 联系,我们将立即删除。

    小黑屋|手机版|Archiver|百度统计|投诉|蓝光电影下载

    GMT+8, 2021-5-11 12:27 , Processed in 0.053590 second(s), 22 queries , Gzip On, MemCached On.

    Powered by Discuz! X3.4

    © 2001-2013 Comsenz Inc.

    快速回复 返回顶部 返回列表