快捷导航
查看: 1689|回复: 32

[喜剧] 衰鬼升天 The.Heavenly.Kid.1985.1080p.BluRay.x264-NOGRP 12.71GB

[复制链接]
  • TA的每日心情

    6 天前
  • 签到天数: 96 天

    [LV.6]常住居民II

    2082

    主题

    2178

    帖子

    4362

    积分

    发布组

    积分
    4362
    发表于 2021-4-25 23:03:47 | 显示全部楼层 |阅读模式
    1. 帖子完整标题:衰鬼升天 The.Heavenly.Kid.1985.1080p.BluRay.x264-NOGRP 12.71GB
    复制代码
    衰鬼升天 The.Heavenly.Kid.1985.1080p.BluRay.x264-NOGRP 12.71GB-1.jpeg


    译  名 衰鬼升天
    片  名 The Heavenly Kid
    年  代 1985
    产  地 美国
    类  别 喜剧 / 爱情
    语  言 英语
    上映日期 1985-07-26
    IMDb评分  6.4/10 from 4235 users
    IMDb链接  https://www.imdb.com/title/tt0089265/
    豆瓣评分 /10 from 0 users
    豆瓣链接 https://movie.douban.com/subject/3142302/
    片  长 90 分钟
    主  演 Chad Hillman
           Lewis Smith
           南茜·瓦伦 Nancy Valen
           William Kerwin
           林恩·格里芬 Lynne Griffin
           Stephen Gregory
           Kenneth Ian Davis
           Lit Connah
           理查德·马利根 Richard Mulligan
           简·卡兹玛拉克 Jane Kaczmarek
           马克·梅特卡夫 Mark Metcalf
           克里斯托弗·格林伯里 Christopher Greenbury
           杰森·杰德里克 Jason Gedrick

    简  介

      暂无相关剧情介绍
    1. Video
    2. ID                                       : 1
    3. Format                                   : AVC
    4. Format/Info                              : Advanced Video Codec
    5. Format profile                           : High@L4
    6. Format settings                          : CABAC / 4 Ref Frames
    7. Format settings, CABAC                   : Yes
    8. Format settings, Reference frames        : 4 frames
    9. Codec ID                                 : V_MPEG4/ISO/AVC
    10. Duration                                 : 1 h 31 min
    11. Bit rate                                 : 19.4 Mb/s
    12. Width                                    : 1 920 pixels
    13. Height                                   : 1 080 pixels
    14. Display aspect ratio                     : 16:9
    15. Frame rate mode                          : Constant
    16. Frame rate                               : 23.976 (24000/1001/189150) FPS
    17. Color space                              : YUV
    18. Chroma subsampling                       : 4:2:0
    19. Bit depth                                : 8 bits
    20. Scan type                                : Progressive
    21. Bits/(Pixel*Frame)                       : 0.390
    22. Stream size                              : 12.3 GiB (97%)
    23. Writing library                          : x264 core 161 r3018+53 ~ Encoded by Mocunaman in Portugal
    24. Encoding settings                        : cabac=1 / ref=4 / deblock=1:-3:-3 / analyse=0x3:0x113 / me=umh / subme=11 / psy=1 / fade_compensate=0.00 / psy_rd=1.05:0.00 / mixed_ref=1 / me_range=32 / chroma_me=1 / trellis=2 / 8x8dct=1 / cqm=0 / deadzone=21,11 / fast_pskip=0 / chroma_qp_offset=-2 / threads=34 / lookahead_threads=5 / sliced_threads=0 / nr=0 / decimate=0 / interlaced=0 / bluray_compat=0 / constrained_intra=0 / fgo=0 / bframes=8 / b_pyramid=2 / b_adapt=2 / b_bias=0 / direct=3 / weightb=1 / open_gop=0 / weightp=2 / keyint=250 / keyint_min=23 / scenecut=40 / intra_refresh=0 / rc_lookahead=60 / rc=crf / mbtree=0 / crf=18.3000 / qcomp=0.60 / qpmin=0:0:0 / qpmax=69:69:69 / qpstep=4 / vbv_maxrate=62500 / vbv_bufsize=78125 / crf_max=0.0 / nal_hrd=none / filler=0 / ip_ratio=1.30 / pb_ratio=1.20 / aq=3:0.75 / aq-sensitivity=10.00 / aq-factor=1.00:1.00:1.00 / aq2=0 / aq3=0
    25. Language                                 : English
    26. Default                                  : Yes
    27. Forced                                   : No
    28. Color range                              : Limited
    29. Color primaries                          : BT.709
    30. Transfer characteristics                 : BT.709
    31. Matrix coefficients                      : BT.709

    32. Audio
    33. ID                                       : 2
    34. Format                                   : FLAC
    35. Format/Info                              : Free Lossless Audio Codec
    36. Codec ID                                 : A_FLAC
    37. Duration                                 : 1 h 31 min
    38. Bit rate mode                            : Variable
    39. Bit rate                                 : 596 kb/s
    40. Channel(s)                               : 2 channels
    41. Channel layout                           : L R
    42. Sampling rate                            : 48.0 kHz
    43. Frame rate                               : 11.719 FPS (4096 SPF)
    44. Bit depth                                : 16 bits
    45. Compression mode                         : Lossless
    46. Stream size                              : 388 MiB (3%)
    47. Title                                    : FLAC 2.0
    48. Writing library                          : libFLAC 1.2.1 (UTC 2007-09-17)
    49. Language                                 : English
    50. Default                                  : Yes
    51. Forced                                   : No

    52. Text #1
    53. ID                                       : 3
    54. Format                                   : UTF-8
    55. Codec ID                                 : S_TEXT/UTF8
    56. Codec ID/Info                            : UTF-8 Plain Text
    57. Duration                                 : 1 h 24 min
    58. Bit rate                                 : 44 b/s
    59. Count of elements                        : 1113
    60. Stream size                              : 27.7 KiB (0%)
    61. Title                                    : Full
    62. Language                                 : English
    63. Default                                  : Yes
    64. Forced                                   : No

    65. Text #2
    66. ID                                       : 4
    67. Format                                   : UTF-8
    68. Codec ID                                 : S_TEXT/UTF8
    69. Codec ID/Info                            : UTF-8 Plain Text
    70. Duration                                 : 1 h 30 min
    71. Bit rate                                 : 61 b/s
    72. Count of elements                        : 1603
    73. Stream size                              : 41.0 KiB (0%)
    74. Title                                    : SDH
    75. Language                                 : English
    76. Default                                  : No
    77. Forced                                   : No

    78. Menu
    79. 00:00:00.000                             : en:Chapter 01
    80. 00:04:41.364                             : en:Chapter 02
    81. 00:12:07.060                             : en:Chapter 03
    82. 00:20:09.041                             : en:Chapter 04
    83. 00:32:14.808                             : en:Chapter 05
    84. 00:41:03.336                             : en:Chapter 06
    85. 00:48:17.311                             : en:Chapter 07
    86. 00:58:56.241                             : en:Chapter 08
    87. 01:05:13.785                             : en:Chapter 09
    88. 01:13:50.676                             : en:Chapter 10
    89. 01:18:42.968                             : en:Chapter 11
    90. 01:26:21.093                             : en:Chapter 12
    复制代码

    衰鬼升天 The.Heavenly.Kid.1985.1080p.BluRay.x264-NOGRP 12.71GB-2.png
    本帖隐藏的内容需要VIP会员才可浏览,您需要升级才可浏览,点击这里升级VIP





    回复

    使用道具 举报

    该用户从未签到

    0

    主题

    4280

    帖子

    2334

    积分

    金牌会员

    Rank: 6Rank: 6

    积分
    2334
    发表于 2021-4-25 23:04:16 | 显示全部楼层
    感谢楼主的无私分享!要想蓝光高清电影网好 就靠你我他
    回复 支持 反对

    使用道具 举报

    该用户从未签到

    0

    主题

    4280

    帖子

    2334

    积分

    金牌会员

    Rank: 6Rank: 6

    积分
    2334
    发表于 2021-4-25 23:28:52 | 显示全部楼层

    非常精彩的电影,下来收藏,感谢楼主
    回复 支持 反对

    使用道具 举报

    该用户从未签到

    0

    主题

    848

    帖子

    731

    积分

    高级会员

    Rank: 4

    积分
    731
    发表于 2021-4-25 23:59:58 | 显示全部楼层
    回复 支持 反对

    使用道具 举报

    该用户从未签到

    0

    主题

    3445

    帖子

    2405

    积分

    金牌会员

    Rank: 6Rank: 6

    积分
    2405
    发表于 2021-4-26 00:06:14 | 显示全部楼层
    楼主太厉害了!楼主,电影应该很好看我觉得蓝光电影下载真是个好地方!
    回复 支持 反对

    使用道具 举报

    该用户从未签到

    0

    主题

    3万

    帖子

    2万

    积分

    论坛元老

    Rank: 8Rank: 8

    积分
    28148
    发表于 2021-4-26 00:30:12 | 显示全部楼层
    这个帖子不回对不起自己!我想我是一天也不能离开蓝光电影网
    回复 支持 反对

    使用道具 举报

  • TA的每日心情
    开心
    9 小时前
  • 签到天数: 233 天

    [LV.7]常住居民III

    3

    主题

    727

    帖子

    2640

    积分

    金牌会员

    Rank: 6Rank: 6

    积分
    2640
    发表于 2021-4-26 00:31:36 | 显示全部楼层
    回复 支持 反对

    使用道具 举报

    该用户从未签到

    0

    主题

    439

    帖子

    354

    积分

    中级会员

    Rank: 3Rank: 3

    积分
    354
    发表于 2021-4-26 00:31:36 | 显示全部楼层
    回复 支持 反对

    使用道具 举报

    该用户从未签到

    0

    主题

    1072

    帖子

    626

    积分

    高级会员

    Rank: 4

    积分
    626
    发表于 2021-4-26 08:34:40 | 显示全部楼层
    回复 支持 反对

    使用道具 举报

    该用户从未签到

    0

    主题

    5940

    帖子

    4497

    积分

    论坛元老

    Rank: 8Rank: 8

    积分
    4497
    发表于 2021-4-26 10:47:44 | 显示全部楼层

    是个好电影!必须要看的!多谢分享!
    回复 支持 反对

    使用道具 举报

    懒得打字嘛,点击右侧快捷回复 【右侧内容,后台自定义】
    您需要登录后才可以回帖 登录 | 立即注册

    本版积分规则

    郑重声明,本站所有作品片源来自互联网公开渠道,均为网友上传交流学习,影视版权均归原电影公司所有,如有侵犯版权,请与 2322694662@qq.com 联系,我们将立即删除。

    小黑屋|手机版|Archiver|百度统计|投诉|蓝光电影下载

    GMT+8, 2021-10-17 10:55 , Processed in 0.108253 second(s), 24 queries , Gzip On, MemCached On.

    Powered by Discuz! X3.4

    © 2001-2013 Comsenz Inc.

    快速回复 返回顶部 返回列表