快捷导航
查看: 2051|回复: 35

[剧情] 小英雄托托 Toto.the.Hero.1991.FRENCH.1080p.BluRay.x264-NOGRP 12.49GB

[复制链接]
  • TA的每日心情

    3 天前
  • 签到天数: 109 天

    [LV.6]常住居民II

    2077

    主题

    2188

    帖子

    4739

    积分

    发布组

    积分
    4739
    发表于 2021-4-25 23:04:51 | 显示全部楼层 |阅读模式
    1. 帖子完整标题:小英雄托托 Toto.the.Hero.1991.FRENCH.1080p.BluRay.x264-NOGRP 12.49GB
    复制代码
    小英雄托托 Toto.the.Hero.1991.FRENCH.1080p.BluRay.x264-NOGRP 12.49GB-1.jpeg


    译  名 小英雄托托/Toto the Hero/小英雄杜杜/托托小英雄/英雄陶陶
    片  名 Toto le héros
    年  代 1991
    产  地 比利时,法国,德国
    类  别 剧情
    语  言 法语
    上映日期 1991-06-19
    IMDb评分  7.6/10 from 5283 users
    IMDb链接  https://www.imdb.com/title/tt0103105/
    豆瓣评分 8.5/10 from 4675 users
    豆瓣链接 https://movie.douban.com/subject/1401209/
    片  长 91 分钟
    导  演 雅克·范·多梅尔 Jaco Van Dormael
    编  剧 雅克·范·多梅尔 Jaco Van Dormael
    主  演 米歇尔·布凯 Michel Bouquet
           乔·德·巴克 Jo De Backer
           Karim Moussati
           Klaus Schindler
           Fabienne Loriaux
           Hugo Harold-Harrison
           Didier Ferney
           托马·戈代 Thomas Godet
           Christine Smeysters
           彼得·博尔克 Peter B?hlke
           吉塞拉·乌尔伦 Gisela Uhlen
           桑德利娜·布兰琪 Sandrine Blancke
           米雷耶·佩里耶 Mireille Perrier
           帕斯卡·杜奎奈 Pascal Duquenne
           贝尔纳·耶尔勒 Bernard Yerlès
           若斯·德波夫 Josse De Pauw
           让-亨利·康佩尔 Jean-Henri Compère

    标  签 法国 | 比利时 | 儿童 | 法国电影 | 剧情 | JacoVanDormael | 1991 | 雅克·范·多梅尔

    简  介

      平民家庭的托托(Thomas Godet 饰)与隔壁富人家庭的阿尔弗雷德(Hugo Harold Harrison 饰)在同一家医院同一天内出生。托托坚信,因为医院的一场大火,导致他们两个婴儿被父母抱错。本该属于他的优渥生活被阿尔弗雷德夺去,当然,每当他提及此事时不免遭受阿尔弗雷德的一顿老拳。随着父亲的意外去世,托托对阿尔弗雷德一家的嫉恨逐渐加深。憎恨并未令他得到满足与补偿,反而使他的一生永远笼罩在阴影之中……
      
      本片荣获1991年戛纳电影节青年奖最佳外语片奖、1992年法国凯撒奖最佳外语片奖、1991年欧洲电影节最佳男主角(Michel Bouquet),最佳摄影,最佳剧本和青年电影奖、1992年葡萄牙奇幻国际电影节最佳影片和最佳剧本。

    获奖情况

      第44届戛纳电影节 ?(1991)
      金摄影机奖(导演处女作奖) 雅克·范·多梅尔
      青年电影奖外国电影 雅克·范·多梅尔
    1. Video
    2. ID                                       : 1
    3. Format                                   : AVC
    4. Format/Info                              : Advanced Video Codec
    5. Format profile                           : High@L4
    6. Format settings                          : CABAC / 4 Ref Frames
    7. Format settings, CABAC                   : Yes
    8. Format settings, Reference frames        : 4 frames
    9. Codec ID                                 : V_MPEG4/ISO/AVC
    10. Duration                                 : 1 h 31 min
    11. Bit rate                                 : 19.2 Mb/s
    12. Width                                    : 1 804 pixels
    13. Height                                   : 1 080 pixels
    14. Display aspect ratio                     : 5:3
    15. Frame rate mode                          : Constant
    16. Frame rate                               : 23.976 (24000/1001/189150) FPS
    17. Color space                              : YUV
    18. Chroma subsampling                       : 4:2:0
    19. Bit depth                                : 8 bits
    20. Scan type                                : Progressive
    21. Bits/(Pixel*Frame)                       : 0.412
    22. Stream size                              : 12.3 GiB (99%)
    23. Writing library                          : x264 core 161 r3018+53 ~ Encoded by Mocunaman in Portugal
    24. Encoding settings                        : cabac=1 / ref=4 / deblock=1:-3:-3 / analyse=0x3:0x113 / me=umh / subme=11 / psy=1 / fade_compensate=0.00 / psy_rd=1.05:0.00 / mixed_ref=1 / me_range=32 / chroma_me=1 / trellis=2 / 8x8dct=1 / cqm=0 / deadzone=21,11 / fast_pskip=0 / chroma_qp_offset=-2 / threads=34 / lookahead_threads=8 / sliced_threads=0 / nr=0 / decimate=0 / interlaced=0 / bluray_compat=0 / constrained_intra=0 / fgo=0 / bframes=10 / b_pyramid=2 / b_adapt=2 / b_bias=0 / direct=3 / weightb=1 / open_gop=0 / weightp=2 / keyint=250 / keyint_min=23 / scenecut=40 / intra_refresh=0 / rc_lookahead=60 / rc=crf / mbtree=0 / crf=20.3000 / qcomp=0.62 / qpmin=0:0:0 / qpmax=69:69:69 / qpstep=4 / vbv_maxrate=62500 / vbv_bufsize=78125 / crf_max=0.0 / nal_hrd=none / filler=0 / ip_ratio=1.30 / pb_ratio=1.20 / aq=3:0.70 / aq-sensitivity=10.00 / aq-factor=1.00:1.00:1.00 / aq2=0 / aq3=0
    25. Language                                 : English
    26. Default                                  : Yes
    27. Forced                                   : No
    28. Color range                              : Limited
    29. Color primaries                          : BT.709
    30. Transfer characteristics                 : BT.709
    31. Matrix coefficients                      : BT.709

    32. Audio
    33. ID                                       : 2
    34. Format                                   : FLAC
    35. Format/Info                              : Free Lossless Audio Codec
    36. Codec ID                                 : A_FLAC
    37. Duration                                 : 1 h 31 min
    38. Bit rate mode                            : Variable
    39. Bit rate                                 : 279 kb/s
    40. Channel(s)                               : 1 channel
    41. Channel layout                           : C
    42. Sampling rate                            : 48.0 kHz
    43. Frame rate                               : 11.719 FPS (4096 SPF)
    44. Bit depth                                : 16 bits
    45. Compression mode                         : Lossless
    46. Stream size                              : 183 MiB (1%)
    47. Title                                    : FLAC 1.0
    48. Writing library                          : libFLAC 1.2.1 (UTC 2007-09-17)
    49. Language                                 : French
    50. Default                                  : Yes
    51. Forced                                   : No

    52. Text
    53. ID                                       : 3
    54. Format                                   : UTF-8
    55. Codec ID                                 : S_TEXT/UTF8
    56. Codec ID/Info                            : UTF-8 Plain Text
    57. Duration                                 : 1 h 27 min
    58. Bit rate                                 : 26 b/s
    59. Count of elements                        : 628
    60. Stream size                              : 17.0 KiB (0%)
    61. Title                                    : Full
    62. Language                                 : English
    63. Default                                  : Yes
    64. Forced                                   : No

    65. Menu
    66. 00:00:00.000                             : :Chapter 01
    67. 00:07:03.214                             : :Chapter 02
    68. 00:15:18.626                             : :Chapter 03
    69. 00:21:53.229                             : :Chapter 04
    70. 00:30:37.669                             : :Chapter 05
    71. 00:37:57.525                             : :Chapter 06
    72. 00:46:05.805                             : :Chapter 07
    73. 00:53:46.974                             : :Chapter 08
    74. 01:00:21.451                             : :Chapter 09
    75. 01:07:37.637                             : :Chapter 10
    76. 01:14:59.453                             : :Chapter 11
    77. 01:24:23.350                             : :Chapter 12
    复制代码

    本帖隐藏的内容需要VIP会员才可浏览,您需要升级才可浏览,点击这里升级VIP




    回复

    使用道具 举报

    该用户从未签到

    0

    主题

    3万

    帖子

    2万

    积分

    论坛元老

    Rank: 8Rank: 8

    积分
    28148
    发表于 2021-4-25 23:05:00 | 显示全部楼层
    感谢楼主的无私分享!要想蓝光高清电影网好 就靠你我他
    回复 支持 反对

    使用道具 举报

    该用户从未签到

    0

    主题

    3万

    帖子

    2万

    积分

    论坛元老

    Rank: 8Rank: 8

    积分
    28148
    发表于 2021-4-25 23:15:10 | 显示全部楼层
    回复 支持 反对

    使用道具 举报

    该用户从未签到

    0

    主题

    4280

    帖子

    2334

    积分

    金牌会员

    Rank: 6Rank: 6

    积分
    2334
    发表于 2021-4-26 00:05:17 | 显示全部楼层

    非常精彩的电影,下来收藏,感谢楼主
    回复 支持 反对

    使用道具 举报

    该用户从未签到

    0

    主题

    1万

    帖子

    1万

    积分

    论坛元老

    Rank: 8Rank: 8

    积分
    17623
    发表于 2021-4-26 00:26:59 | 显示全部楼层
    楼主太厉害了!楼主,电影应该很好看我觉得蓝光电影下载真是个好地方!
    回复 支持 反对

    使用道具 举报

    该用户从未签到

    0

    主题

    1442

    帖子

    1151

    积分

    金牌会员

    Rank: 6Rank: 6

    积分
    1151
    发表于 2021-4-26 00:29:45 | 显示全部楼层
    回复 支持 反对

    使用道具 举报

    该用户从未签到

    0

    主题

    1677

    帖子

    1488

    积分

    金牌会员

    Rank: 6Rank: 6

    积分
    1488
    发表于 2021-4-26 00:29:57 | 显示全部楼层
    回复 支持 反对

    使用道具 举报

  • TA的每日心情
    开心
    10 小时前
  • 签到天数: 233 天

    [LV.7]常住居民III

    3

    主题

    727

    帖子

    2640

    积分

    金牌会员

    Rank: 6Rank: 6

    积分
    2640
    发表于 2021-4-26 00:30:09 | 显示全部楼层
    回复 支持 反对

    使用道具 举报

  • TA的每日心情
    开心
    2021-4-27 06:04
  • 签到天数: 2 天

    [LV.1]初来乍到

    0

    主题

    10

    帖子

    30

    积分

    新手上路

    Rank: 1

    积分
    30
    发表于 2021-4-26 05:25:15 | 显示全部楼层
    楼主发贴辛苦了,谢谢楼主分享!我觉得蓝光电影网是注册对了!
    回复 支持 反对

    使用道具 举报

    该用户从未签到

    0

    主题

    1万

    帖子

    1万

    积分

    论坛元老

    Rank: 8Rank: 8

    积分
    17623
    发表于 2021-4-26 05:25:16 | 显示全部楼层
    回复 支持 反对

    使用道具 举报

    懒得打字嘛,点击右侧快捷回复 【右侧内容,后台自定义】
    您需要登录后才可以回帖 登录 | 立即注册

    本版积分规则

    郑重声明,本站所有作品片源来自互联网公开渠道,均为网友上传交流学习,影视版权均归原电影公司所有,如有侵犯版权,请与 2322694662@qq.com 联系,我们将立即删除。

    小黑屋|手机版|Archiver|百度统计|投诉|蓝光电影下载

    GMT+8, 2021-10-17 11:53 , Processed in 0.108975 second(s), 27 queries , Gzip On, MemCached On.

    Powered by Discuz! X3.4

    © 2001-2013 Comsenz Inc.

    快速回复 返回顶部 返回列表