快捷导航
查看: 625|回复: 29

[惊悚] 黑水/黑色血腥河 Black.Water.2007.1080p.BluRay.x264.DTS-NOGRP 8.09GB

[复制链接]
  • TA的每日心情

    2021-4-27 18:29
  • 签到天数: 36 天

    [LV.5]常住居民I

    1162

    主题

    1198

    帖子

    2060

    积分

    发布组

    积分
    2060
    发表于 2021-4-25 23:05:52 | 显示全部楼层 |阅读模式
    1. 帖子完整标题:黑水/黑色血腥河 Black.Water.2007.1080p.BluRay.x264.DTS-NOGRP 8.09GB
    复制代码
    黑水/黑色血腥河 Black.Water.2007.1080p.BluRay.x264.DTS-NOGRP 8.09GB-1.jpeg


    译  名 黑水/黑色血腥河
    片  名 Black Water
    年  代 2007
    产  地 澳大利亚
    类  别 剧情 / 惊悚 / 恐怖 / 冒险
    语  言 英语
    上映日期 2007-08-03(纽伦堡奇幻电影节) / 2008-04-24(澳大利亚)
    IMDb评分  5.9/10 from 13096 users
    IMDb链接  https://www.imdb.com/title/tt0816436/
    豆瓣评分 5.6/10 from 1604 users
    豆瓣链接 https://movie.douban.com/subject/2287735/
    片  长 90分钟
    导  演 安德鲁·陶克吉  Andrew Traucki
    编  剧 安德鲁·陶克吉  Andrew Traucki
    主  演 戴安娜·格伦 Diana Glenn
           梅芙·德莫迪 Maeve Dermody
           本·奥克森宝德 Ben Oxenbould

    标  签 惊悚 | 恐怖 | 鳄鱼 | 澳大利亚 | 美国 | 2007 | 黑水 | 灾难

    简  介

      圣诞假期临近,居住在悉尼的格蕾丝(戴安娜·格雷恩 Diana Glenn 饰)和丈夫亚当(安迪·罗德雷德 Andy Rodoreda 饰)及她的妹妹李(梅芙·德莫迪 Maeve Dermody 饰)前往澳大利亚北部——一个有鳄鱼出没的生态公园度假。公园内人潮攒动,欢乐气氛四处蔓延。这三个酷爱冒险的人相中了死水巴里河,于是决定次日向那里进发。他们错过了开往巴里河的游船,于是乘坐当地人吉姆(本·奥克森伯德 Ben Oxenbould 饰)的摩托艇驶往目的地。风和日丽,清爽时节,他们一心欣赏优美的自然风光,却完全忽视危险的存在。突然,小船遭到鳄鱼袭击,吉姆落水,格蕾丝他们就这样被困在了这个隔绝之地……
      
      本片根据真实事件改编,并荣获2007年墨尔本地下电影节最佳摄影和最佳导演奖。
    1. Video
    2. ID                                       : 1
    3. Format                                   : AVC
    4. Format/Info                              : Advanced Video Codec
    5. Format profile                           : High@L4
    6. Format settings                          : CABAC / 4 Ref Frames
    7. Format settings, CABAC                   : Yes
    8. Format settings, Reference frames        : 4 frames
    9. Codec ID                                 : V_MPEG4/ISO/AVC
    10. Duration                                 : 1 h 29 min
    11. Bit rate                                 : 11.5 Mb/s
    12. Width                                    : 1 920 pixels
    13. Height                                   : 1 080 pixels
    14. Display aspect ratio                     : 16:9
    15. Frame rate mode                          : Constant
    16. Frame rate                               : 23.976 (24000/1001/189150) FPS
    17. Color space                              : YUV
    18. Chroma subsampling                       : 4:2:0
    19. Bit depth                                : 8 bits
    20. Scan type                                : Progressive
    21. Bits/(Pixel*Frame)                       : 0.231
    22. Stream size                              : 7.15 GiB (88%)
    23. Writing library                          : x264 core 161 r3018+53 ~ Encoded by Mocunaman in Portugal
    24. Encoding settings                        : cabac=1 / ref=4 / deblock=1:-3:-3 / analyse=0x3:0x113 / me=umh / subme=11 / psy=1 / fade_compensate=0.00 / psy_rd=1.00:0.00 / mixed_ref=1 / me_range=32 / chroma_me=1 / trellis=2 / 8x8dct=1 / cqm=0 / deadzone=21,11 / fast_pskip=0 / chroma_qp_offset=-2 / threads=34 / lookahead_threads=5 / sliced_threads=0 / nr=0 / decimate=0 / interlaced=0 / bluray_compat=0 / constrained_intra=0 / fgo=0 / bframes=8 / b_pyramid=2 / b_adapt=2 / b_bias=0 / direct=3 / weightb=1 / open_gop=0 / weightp=2 / keyint=250 / keyint_min=23 / scenecut=40 / intra_refresh=0 / rc_lookahead=60 / rc=crf / mbtree=0 / crf=23.5000 / qcomp=0.65 / qpmin=0:0:0 / qpmax=69:69:69 / qpstep=4 / vbv_maxrate=62500 / vbv_bufsize=78125 / crf_max=0.0 / nal_hrd=none / filler=0 / ip_ratio=1.30 / pb_ratio=1.20 / aq=3:0.85 / aq-sensitivity=10.00 / aq-factor=1.00:1.00:1.00 / aq2=0 / aq3=0 / zones=8469,8759,crf=23/10609,10839,crf=23/25884,26099,crf=23/67926,68416,crf=23/80776,84088,crf=23
    25. Language                                 : English
    26. Default                                  : Yes
    27. Forced                                   : No
    28. Color range                              : Limited
    29. Color primaries                          : BT.709
    30. Transfer characteristics                 : BT.709
    31. Matrix coefficients                      : BT.709

    32. Audio
    33. ID                                       : 2
    34. Format                                   : DTS
    35. Format/Info                              : Digital Theater Systems
    36. Codec ID                                 : A_DTS
    37. Duration                                 : 1 h 29 min
    38. Bit rate mode                            : Constant
    39. Bit rate                                 : 1 509 kb/s
    40. Channel(s)                               : 6 channels
    41. Channel layout                           : C L R Ls Rs LFE
    42. Sampling rate                            : 48.0 kHz
    43. Frame rate                               : 93.750 FPS (512 SPF)
    44. Bit depth                                : 24 bits
    45. Compression mode                         : Lossy
    46. Stream size                              : 963 MiB (12%)
    47. Title                                    : DTS 5.1
    48. Language                                 : English
    49. Default                                  : Yes
    50. Forced                                   : No

    51. Text
    52. ID                                       : 3
    53. Format                                   : UTF-8
    54. Codec ID                                 : S_TEXT/UTF8
    55. Codec ID/Info                            : UTF-8 Plain Text
    56. Duration                                 : 1 h 24 min
    57. Bit rate                                 : 29 b/s
    58. Count of elements                        : 843
    59. Stream size                              : 18.5 KiB (0%)
    60. Title                                    : SDH
    61. Language                                 : English
    62. Default                                  : No
    63. Forced                                   : No

    64. Menu
    65. 00:00:00.000                             : en:1. The Crocodile Farm
    66. 00:08:47.360                             : en:2. Boat Trip
    67. 00:19:46.680                             : en:3. Capsized
    68. 00:30:35.750                             : en:4. In the Tree
    69. 00:39:36.410                             : en:5. Three Naughty Monkeys
    70. 00:49:27.880                             : en:6. No Way Out
    71. 00:58:40.390                             : en:7. Paralyzed
    72. 01:08:05.450                             : en:8. Rescue?
    73. 01:14:56.659                             : en:9. Survived
    74. 01:26:05.830                             : en:10. End Credits
    复制代码

    黑水/黑色血腥河 Black.Water.2007.1080p.BluRay.x264.DTS-NOGRP 8.09GB-2.png
    黑水/黑色血腥河 Black.Water.2007.1080p.BluRay.x264.DTS-NOGRP 8.09GB-3.png
    本帖隐藏的内容需要VIP会员才可浏览,您需要升级才可浏览,点击这里升级VIP





    回复

    使用道具 举报

    该用户从未签到

    0

    主题

    1万

    帖子

    1万

    积分

    论坛元老

    Rank: 8Rank: 8

    积分
    14219
    发表于 2021-4-25 23:06:39 | 显示全部楼层

    下载保存,谢谢楼主

    点评

    QQ 12615137 =出-售 桑=拿=女 按=摩=女 模=特= 外=围=女=资=料 良=家 学=生=妹=信=息  发表于 3 天前
    回复 支持 反对

    使用道具 举报

    该用户从未签到

    0

    主题

    1万

    帖子

    1万

    积分

    论坛元老

    Rank: 8Rank: 8

    积分
    14219
    发表于 2021-4-25 23:28:42 | 显示全部楼层
    回复 支持 反对

    使用道具 举报

    该用户从未签到

    0

    主题

    1万

    帖子

    1万

    积分

    论坛元老

    Rank: 8Rank: 8

    积分
    14259
    发表于 2021-4-26 00:05:59 | 显示全部楼层
    回复 支持 反对

    使用道具 举报

    该用户从未签到

    0

    主题

    2万

    帖子

    2万

    积分

    论坛元老

    Rank: 8Rank: 8

    积分
    22944
    发表于 2021-4-26 00:06:16 | 显示全部楼层

    是个好电影!必须要看的!多谢分享!
    回复 支持 反对

    使用道具 举报

    该用户从未签到

    0

    主题

    3681

    帖子

    2875

    积分

    金牌会员

    Rank: 6Rank: 6

    积分
    2875
    发表于 2021-4-26 00:29:32 | 显示全部楼层
    感谢楼主的无私分享!要想蓝光高清电影网好 就靠你我他
    回复 支持 反对

    使用道具 举报

  • TA的每日心情
    开心
    2016-6-1 14:06
  • 签到天数: 1 天

    [LV.1]初来乍到

    0

    主题

    868

    帖子

    696

    积分

    高级会员

    Rank: 4

    积分
    696
    发表于 2021-4-26 00:29:48 | 显示全部楼层
    回复 支持 反对

    使用道具 举报

  • TA的每日心情
    开心
    11 小时前
  • 签到天数: 80 天

    [LV.6]常住居民II

    0

    主题

    257

    帖子

    896

    积分

    高级会员

    Rank: 4

    积分
    896
    发表于 2021-4-26 00:29:53 | 显示全部楼层
    回复 支持 反对

    使用道具 举报

    该用户从未签到

    0

    主题

    3809

    帖子

    2888

    积分

    金牌会员

    Rank: 6Rank: 6

    积分
    2888
    发表于 2021-4-26 00:47:16 | 显示全部楼层
    这个帖子不回对不起自己!我想我是一天也不能离开蓝光电影网
    回复 支持 反对

    使用道具 举报

    该用户从未签到

    0

    主题

    1371

    帖子

    997

    积分

    金牌会员

    Rank: 6Rank: 6

    积分
    997
    发表于 2021-4-26 01:50:00 | 显示全部楼层
    回复 支持 反对

    使用道具 举报

    懒得打字嘛,点击右侧快捷回复 【右侧内容,后台自定义】
    您需要登录后才可以回帖 登录 | 立即注册

    本版积分规则

    郑重声明,本站所有作品片源来自互联网公开渠道,均为网友上传交流学习,影视版权均归原电影公司所有,如有侵犯版权,请与 2322694662@qq.com 联系,我们将立即删除。

    小黑屋|手机版|Archiver|百度统计|投诉|蓝光电影下载

    GMT+8, 2021-5-11 11:15 , Processed in 0.030786 second(s), 24 queries , Gzip On, MemCached On.

    Powered by Discuz! X3.4

    © 2001-2013 Comsenz Inc.

    快速回复 返回顶部 返回列表