快捷导航
查看: 370|回复: 13

[喜剧] 酒吧 The.Bar.2017.1080p.BluRay.x264-USURY 7.95GB

[复制链接]
  • TA的每日心情
    无聊
    3 天前
  • 签到天数: 61 天

    [LV.6]常住居民II

    1623

    主题

    1684

    帖子

    3125

    积分

    发布组

    积分
    3125
    发表于 2021-5-31 18:17:48 | 显示全部楼层 |阅读模式
    1. 帖子完整标题:酒吧 The.Bar.2017.1080p.BluRay.x264-USURY 7.95GB
    复制代码
    酒吧 The.Bar.2017.1080p.BluRay.x264-USURY 7.95GB-1.png


    译  名 酒吧/The Bar/囚困酒吧/抓狂酒吧(台)/疯狂酒吧/绝困缉凶(港)/艾尔酒吧
    片  名 El bar
    年  代 2017
    产  地 西班牙,阿根廷
    类  别 喜剧 / 惊悚 / 恐怖
    语  言 西班牙语
    上映日期 2017-02-15(柏林电影节) / 2017-03-24(西班牙)
    IMDb评分  6.3/10 from 21470 users
    IMDb链接  https://www.imdb.com/title/tt5121816/
    豆瓣评分 6.4/10 from 14627 users
    豆瓣链接 https://movie.douban.com/subject/26694497/
    片  长 102分钟
    导  演 阿莱克斯·德·拉·伊格莱西亚 álex de la Iglesia
    编  剧 豪尔赫·格力加耶切瓦利亚 Jorge Guerricaechevarría / 阿莱克斯·德·拉·伊格莱西亚 álex de la Iglesia
    主  演 布兰卡·苏亚雷斯 Blanca Suárez
           马里奥·卡萨斯 Mario Casas
           卡门·马奇 Carmen Machi
           塞康·德拉罗萨 Secun de la Rosa
           杰米·奥多尼斯 Jaime Ordó?ez
           特雷勒·帕维斯 Terele Pávez
           华金·克莱门特 Joaquín Climent
           亚历杭德罗·亚旺达 Alejandro Awada
           苏·弗拉克 Sue Flack

    标  签 西班牙 | 悬疑 | 惊悚 | 人性 | 犯罪 | 2017 | 电影 | 喜剧

    简  介

      普通的一个白天,11个普通人被困在一个简陋的酒吧里。里面有老板厨子,有熟客,有偶然进去寻找充电器的陌生人。但是突然之间,大家发现出去的人就要被杀死,而酒吧内部也渐渐危机四伏。

    获奖情况

      第32届西班牙戈雅奖 ?(2018)
      最佳音效(提名)
    1. Video
    2. ID                                       : 1
    3. Format                                   : AVC
    4. Format/Info                              : Advanced Video Codec
    5. Format profile                           : High@L4
    6. Format settings                          : CABAC / 5 Ref Frames
    7. Format settings, CABAC                   : Yes
    8. Format settings, Reference frames        : 5 frames
    9. Codec ID                                 : V_MPEG4/ISO/AVC
    10. Duration                                 : 1 h 42 min
    11. Bit rate                                 : 9 641 kb/s
    12. Width                                    : 1 920 pixels
    13. Height                                   : 808 pixels
    14. Display aspect ratio                     : 2.40:1
    15. Frame rate mode                          : Constant
    16. Frame rate                               : 24.000 FPS
    17. Color space                              : YUV
    18. Chroma subsampling                       : 4:2:0
    19. Bit depth                                : 8 bits
    20. Scan type                                : Progressive
    21. Bits/(Pixel*Frame)                       : 0.259
    22. Stream size                              : 6.87 GiB (86%)
    23. Writing library                          : x264 core 152 r2851 ba24899
    24. Encoding settings                        : cabac=1 / ref=5 / deblock=1:-3:-3 / analyse=0x3:0x133 / me=umh / subme=9 / psy=1 / psy_rd=1.00:0.00 / mixed_ref=1 / me_range=16 / chroma_me=1 / trellis=2 / 8x8dct=1 / cqm=0 / deadzone=21,11 / fast_pskip=0 / chroma_qp_offset=-2 / threads=25 / lookahead_threads=2 / sliced_threads=0 / nr=0 / decimate=1 / interlaced=0 / bluray_compat=0 / constrained_intra=0 / bframes=3 / b_pyramid=2 / b_adapt=1 / b_bias=0 / direct=3 / weightb=1 / open_gop=0 / weightp=2 / keyint=250 / keyint_min=24 / scenecut=40 / intra_refresh=0 / rc_lookahead=50 / rc=2pass / mbtree=1 / bitrate=9641 / ratetol=1.0 / qcomp=0.60 / qpmin=0 / qpmax=69 / qpstep=4 / cplxblur=20.0 / qblur=0.5 / ip_ratio=1.40 / aq=1:1.00
    25. Language                                 : English
    26. Default                                  : Yes
    27. Forced                                   : No

    28. Audio
    29. ID                                       : 2
    30. Format                                   : DTS
    31. Format/Info                              : Digital Theater Systems
    32. Codec ID                                 : A_DTS
    33. Duration                                 : 1 h 42 min
    34. Bit rate mode                            : Constant
    35. Bit rate                                 : 1 509 kb/s
    36. Channel(s)                               : 6 channels
    37. Channel layout                           : C L R Ls Rs LFE
    38. Sampling rate                            : 48.0 kHz
    39. Frame rate                               : 93.750 FPS (512 SPF)
    40. Bit depth                                : 24 bits
    41. Compression mode                         : Lossy
    42. Stream size                              : 1.08 GiB (14%)
    43. Language                                 : Spanish
    44. Default                                  : Yes
    45. Forced                                   : No

    46. Text
    47. ID                                       : 3
    48. Format                                   : UTF-8
    49. Codec ID                                 : S_TEXT/UTF8
    50. Codec ID/Info                            : UTF-8 Plain Text
    51. Duration                                 : 1 h 41 min
    52. Bit rate                                 : 58 b/s
    53. Count of elements                        : 1417
    54. Stream size                              : 43.7 KiB (0%)
    55. Title                                    : forced
    56. Language                                 : English
    57. Default                                  : Yes
    58. Forced                                   : Yes

    59. Menu
    60. 00:00:00.000                             : en:00:00:00.000
    61. 00:07:25.625                             : en:00:07:25.625
    62. 00:17:14.917                             : en:00:17:14.917
    63. 00:26:04.917                             : en:00:26:04.917
    64. 00:33:26.292                             : en:00:33:26.292
    65. 00:41:39.500                             : en:00:41:39.500
    66. 00:51:34.375                             : en:00:51:34.375
    67. 00:59:14.667                             : en:00:59:14.667
    68. 01:08:20.625                             : en:01:08:20.625
    69. 01:16:23.667                             : en:01:16:23.667
    70. 01:24:45.083                             : en:01:24:45.083
    71. 01:33:44.625                             : en:01:33:44.625
    复制代码

    本帖隐藏的内容需要VIP会员才可浏览,您需要升级才可浏览,点击这里升级VIP




    回复

    使用道具 举报

    该用户从未签到

    0

    主题

    1万

    帖子

    1万

    积分

    论坛元老

    Rank: 8Rank: 8

    积分
    15691
    发表于 2021-5-31 18:17:57 | 显示全部楼层

    是个好电影!必须要看的!多谢分享!
    回复 支持 反对

    使用道具 举报

    该用户从未签到

    0

    主题

    1万

    帖子

    1万

    积分

    论坛元老

    Rank: 8Rank: 8

    积分
    15691
    发表于 2021-5-31 18:27:06 | 显示全部楼层
    回复 支持 反对

    使用道具 举报

  • TA的每日心情
    无聊
    昨天 17:58
  • 签到天数: 23 天

    [LV.4]偶尔看看III

    0

    主题

    213

    帖子

    538

    积分

    高级会员

    Rank: 4

    积分
    538
    发表于 2021-5-31 18:30:13 | 显示全部楼层

    这个帖子不回对不起自己!我想我是一天也不能离开蓝光电影网
    回复 支持 反对

    使用道具 举报

    该用户从未签到

    0

    主题

    1万

    帖子

    1万

    积分

    论坛元老

    Rank: 8Rank: 8

    积分
    15691
    发表于 2021-5-31 18:30:14 | 显示全部楼层

    非常精彩的电影,下来收藏,感谢楼主
    回复 支持 反对

    使用道具 举报

    该用户从未签到

    0

    主题

    777

    帖子

    465

    积分

    中级会员

    Rank: 3Rank: 3

    积分
    465
    发表于 2021-5-31 18:30:14 | 显示全部楼层
    这个帖子不回对不起自己!我想我是一天也不能离开蓝光电影网
    回复 支持 反对

    使用道具 举报

    该用户从未签到

    0

    主题

    1002

    帖子

    854

    积分

    高级会员

    Rank: 4

    积分
    854
    发表于 2021-5-31 19:56:00 | 显示全部楼层
    回复 支持 反对

    使用道具 举报

    该用户从未签到

    0

    主题

    4202

    帖子

    3563

    积分

    论坛元老

    Rank: 8Rank: 8

    积分
    3563
    发表于 2021-5-31 22:45:55 | 显示全部楼层
    回复 支持 反对

    使用道具 举报

    该用户从未签到

    0

    主题

    2万

    帖子

    2万

    积分

    论坛元老

    Rank: 8Rank: 8

    积分
    25556
    发表于 2021-6-2 09:30:18 | 显示全部楼层
    楼主太厉害了!楼主,电影应该很好看我觉得蓝光电影下载真是个好地方!
    回复 支持 反对

    使用道具 举报

    该用户从未签到

    0

    主题

    1万

    帖子

    1万

    积分

    论坛元老

    Rank: 8Rank: 8

    积分
    16777
    发表于 2021-6-2 16:11:53 | 显示全部楼层
    回复 支持 反对

    使用道具 举报

    懒得打字嘛,点击右侧快捷回复 【右侧内容,后台自定义】
    您需要登录后才可以回帖 登录 | 立即注册

    本版积分规则

    郑重声明,本站所有作品片源来自互联网公开渠道,均为网友上传交流学习,影视版权均归原电影公司所有,如有侵犯版权,请与 2322694662@qq.com 联系,我们将立即删除。

    小黑屋|手机版|Archiver|百度统计|投诉|蓝光电影下载

    GMT+8, 2021-6-22 14:50 , Processed in 0.054137 second(s), 24 queries , Gzip On, MemCached On.

    Powered by Discuz! X3.4

    © 2001-2013 Comsenz Inc.

    快速回复 返回顶部 返回列表