快捷导航
查看: 546|回复: 12

[喜剧] 魔精 Critters.1986.1080p.BluRay.X264-AMIABLE 8.75GB

[复制链接]
  • TA的每日心情
    无聊
    3 天前
  • 签到天数: 61 天

    [LV.6]常住居民II

    1623

    主题

    1684

    帖子

    3125

    积分

    发布组

    积分
    3125
    发表于 2021-6-2 17:33:38 | 显示全部楼层 |阅读模式
    1. 帖子完整标题:魔精 Critters.1986.1080p.BluRay.X264-AMIABLE 8.75GB
    复制代码
    魔精 Critters.1986.1080p.BluRay.X264-AMIABLE 8.75GB-1.png


    译  名 魔精
    片  名 Critters
    年  代 1986
    产  地 美国
    类  别 喜剧 / 动作 / 科幻 / 惊悚 / 恐怖
    语  言 英语
    上映日期 1986-04-11
    IMDb评分  6.1/10 from 30440 users
    IMDb链接  https://www.imdb.com/title/tt0090887/
    豆瓣评分 6.4/10 from 312 users
    豆瓣链接 https://movie.douban.com/subject/1963478/
    片  长 82 分钟
    导  演 斯蒂芬·赫瑞克 Stephen Herek
    编  剧 斯蒂芬·赫瑞克 Stephen Herek / 唐·基思·奥珀 Don Keith Opper
    主  演 斯科特·格瑞恩斯 Scott Grimes
           林·沙烨 Lin Shaye
           迪·沃伦斯 Dee Wallace
           唐·基思·奥珀 Don Keith Opper
           比利·赞恩 Billy Zane
           Nadine Van der Velde
           M·埃梅特·沃尔什 M. Emmet Walsh
           科里·伯顿 Corey Burton
           Art Frankel
           Montrose Hagins
           Adele Malis-Morey
           泰伦斯·曼 Terrence Mann
           伊桑·菲利普斯 Ethan Phillips

    标  签 恐怖 | 科幻 | 美国 | 惊悚 | 喜剧 | 1986 | 美国电影 | 恐怖电影

    简  介

      在另一个星系的星球上,一个戒备级别最高的监狱中一场越狱的行动正在进行中,几个死囚来到了地球,这些长满獠牙的畜生都是血腥的透视动物,特别喜欢人肉...........
    1. Video
    2. ID                                       : 1
    3. Format                                   : AVC
    4. Format/Info                              : Advanced Video Codec
    5. Format profile                           : High@L4
    6. Format settings                          : CABAC / 4 Ref Frames
    7. Format settings, CABAC                   : Yes
    8. Format settings, Reference frames        : 4 frames
    9. Codec ID                                 : V_MPEG4/ISO/AVC
    10. Duration                                 : 1 h 25 min
    11. Bit rate                                 : 13.1 Mb/s
    12. Width                                    : 1 920 pixels
    13. Height                                   : 1 040 pixels
    14. Display aspect ratio                     : 1.85:1
    15. Frame rate mode                          : Constant
    16. Frame rate                               : 23.976 (24000/1001/189150) FPS
    17. Color space                              : YUV
    18. Chroma subsampling                       : 4:2:0
    19. Bit depth                                : 8 bits
    20. Scan type                                : Progressive
    21. Bits/(Pixel*Frame)                       : 0.273
    22. Stream size                              : 7.66 GiB (88%)
    23. Writing library                          : x264 core 157 r2935 545de2f
    24. Encoding settings                        : cabac=1 / ref=4 / deblock=1:-3:-3 / analyse=0x3:0x113 / me=umh / subme=8 / psy=1 / psy_rd=1.10:0.00 / mixed_ref=1 / me_range=48 / chroma_me=1 / trellis=2 / 8x8dct=1 / cqm=0 / deadzone=21,11 / fast_pskip=1 / chroma_qp_offset=-2 / threads=32 / lookahead_threads=5 / sliced_threads=0 / nr=0 / decimate=1 / interlaced=0 / bluray_compat=0 / constrained_intra=0 / bframes=3 / b_pyramid=2 / b_adapt=2 / b_bias=0 / direct=3 / weightb=1 / open_gop=0 / weightp=2 / keyint=240 / keyint_min=24 / scenecut=40 / intra_refresh=0 / rc_lookahead=50 / rc=2pass / mbtree=1 / bitrate=13092 / ratetol=1.0 / qcomp=0.60 / qpmin=0 / qpmax=69 / qpstep=4 / cplxblur=20.0 / qblur=0.5 / ip_ratio=1.40 / aq=3:0.75
    25. Default                                  : Yes
    26. Forced                                   : No
    27. Statistics Tags Issue                    : no_variable_data 1970-01-01 00:00:00 / no_variable_data 2010-02-22 21:41:29
    28. FromStats_BitRate                        : 13085076
    29. FromStats_Duration                       : 01:25:43.764000000
    30. FromStats_FrameCount                     : 123327
    31. FromStats_StreamSize                     : 8413318490

    32. Audio
    33. ID                                       : 2
    34. Format                                   : DTS
    35. Format/Info                              : Digital Theater Systems
    36. Codec ID                                 : A_DTS
    37. Duration                                 : 1 h 25 min
    38. Bit rate mode                            : Constant
    39. Bit rate                                 : 1 509 kb/s
    40. Channel(s)                               : 6 channels
    41. Channel layout                           : C L R Ls Rs LFE
    42. Sampling rate                            : 48.0 kHz
    43. Frame rate                               : 93.750 FPS (512 SPF)
    44. Bit depth                                : 24 bits
    45. Compression mode                         : Lossy
    46. Stream size                              : 925 MiB (10%)
    47. Language                                 : English
    48. Default                                  : Yes
    49. Forced                                   : No
    50. Statistics Tags Issue                    : no_variable_data 1970-01-01 00:00:00 / no_variable_data 2010-02-22 21:41:29
    51. FromStats_BitRate                        : 1509000
    52. FromStats_Duration                       : 01:25:42.784000000
    53. FromStats_FrameCount                     : 482136
    54. FromStats_StreamSize                     : 970057632

    55. Text #1
    56. ID                                       : 3
    57. Format                                   : UTF-8
    58. Codec ID                                 : S_TEXT/UTF8
    59. Codec ID/Info                            : UTF-8 Plain Text
    60. Language                                 : English
    61. Default                                  : No
    62. Forced                                   : No
    63. Statistics Tags Issue                    : no_variable_data 1970-01-01 00:00:00 / no_variable_data 2010-02-22 21:41:29
    64. FromStats_BitRate                        : 36
    65. FromStats_Duration                       : 01:19:43.946000000
    66. FromStats_FrameCount                     : 732
    67. FromStats_StreamSize                     : 21926

    68. Text #2
    69. ID                                       : 4
    70. Format                                   : UTF-8
    71. Codec ID                                 : S_TEXT/UTF8
    72. Codec ID/Info                            : UTF-8 Plain Text
    73. Title                                    : SDH
    74. Language                                 : English
    75. Default                                  : No
    76. Forced                                   : No
    77. Statistics Tags Issue                    : no_variable_data 1970-01-01 00:00:00 / no_variable_data 2010-02-22 21:41:29
    78. FromStats_BitRate                        : 49
    79. FromStats_Duration                       : 01:25:16.778000000
    80. FromStats_FrameCount                     : 1201
    81. FromStats_StreamSize                     : 31954

    82. Menu
    83. 00:00:00.000                             : en:Chapter 01
    84. 00:04:53.418                             : en:Chapter 02
    85. 00:13:40.319                             : en:Chapter 03
    86. 00:20:46.328                             : en:Chapter 04
    87. 00:26:50.984                             : en:Chapter 05
    88. 00:34:30.360                             : en:Chapter 06
    89. 00:42:34.677                             : en:Chapter 07
    90. 00:50:14.178                             : en:Chapter 08
    91. 00:59:12.758                             : en:Chapter 09
    92. 01:06:22.645                             : en:Chapter 10
    93. 01:11:56.521                             : en:Chapter 11
    94. 01:18:38.881                             : en:Chapter 12
    复制代码

    魔精 Critters.1986.1080p.BluRay.X264-AMIABLE 8.75GB-2.png
    本帖隐藏的内容需要VIP会员才可浏览,您需要升级才可浏览,点击这里升级VIP





    回复

    使用道具 举报

    该用户从未签到

    0

    主题

    4202

    帖子

    3563

    积分

    论坛元老

    Rank: 8Rank: 8

    积分
    3563
    发表于 2021-6-2 17:33:57 | 显示全部楼层
    这个帖子不回对不起自己!我想我是一天也不能离开蓝光电影网
    回复 支持 反对

    使用道具 举报

    该用户从未签到

    0

    主题

    1万

    帖子

    1万

    积分

    论坛元老

    Rank: 8Rank: 8

    积分
    15691
    发表于 2021-6-3 10:38:30 | 显示全部楼层
    回复 支持 反对

    使用道具 举报

    该用户从未签到

    0

    主题

    998

    帖子

    597

    积分

    高级会员

    Rank: 4

    积分
    597
    发表于 2021-6-5 20:11:33 | 显示全部楼层
    回复 支持 反对

    使用道具 举报

    该用户从未签到

    0

    主题

    4794

    帖子

    2186

    积分

    金牌会员

    Rank: 6Rank: 6

    积分
    2186
    发表于 2021-6-6 05:29:35 | 显示全部楼层
    感谢楼主的无私分享!要想蓝光高清电影网好 就靠你我他
    回复 支持 反对

    使用道具 举报

    该用户从未签到

    0

    主题

    1万

    帖子

    1万

    积分

    论坛元老

    Rank: 8Rank: 8

    积分
    15691
    发表于 2021-6-11 05:06:16 | 显示全部楼层

    非常精彩的电影,下来收藏,感谢楼主
    回复 支持 反对

    使用道具 举报

    该用户从未签到

    0

    主题

    4794

    帖子

    2186

    积分

    金牌会员

    Rank: 6Rank: 6

    积分
    2186
    发表于 2021-6-11 07:18:57 | 显示全部楼层
    回复 支持 反对

    使用道具 举报

    该用户从未签到

    0

    主题

    4794

    帖子

    2186

    积分

    金牌会员

    Rank: 6Rank: 6

    积分
    2186
    发表于 2021-6-11 11:05:57 | 显示全部楼层
    回复 支持 反对

    使用道具 举报

    该用户从未签到

    0

    主题

    4202

    帖子

    3563

    积分

    论坛元老

    Rank: 8Rank: 8

    积分
    3563
    发表于 2021-6-12 09:58:07 | 显示全部楼层
    回复 支持 反对

    使用道具 举报

    该用户从未签到

    0

    主题

    1844

    帖子

    1590

    积分

    金牌会员

    Rank: 6Rank: 6

    积分
    1590
    发表于 2021-6-13 18:05:54 | 显示全部楼层
    回复 支持 反对

    使用道具 举报

    懒得打字嘛,点击右侧快捷回复 【右侧内容,后台自定义】
    您需要登录后才可以回帖 登录 | 立即注册

    本版积分规则

    郑重声明,本站所有作品片源来自互联网公开渠道,均为网友上传交流学习,影视版权均归原电影公司所有,如有侵犯版权,请与 2322694662@qq.com 联系,我们将立即删除。

    小黑屋|手机版|Archiver|百度统计|投诉|蓝光电影下载

    GMT+8, 2021-6-22 15:08 , Processed in 0.063150 second(s), 24 queries , Gzip On, MemCached On.

    Powered by Discuz! X3.4

    © 2001-2013 Comsenz Inc.

    快速回复 返回顶部 返回列表