快捷导航
查看: 598|回复: 12

[惊悚] 不要进屋/别进屋 Dont.Go.in.the.House.1979.1080p.BluRay.x264-USURY 5.46GB

[复制链接]
  • TA的每日心情
    擦汗
    3 天前
  • 签到天数: 69 天

    [LV.6]常住居民II

    1529

    主题

    1600

    帖子

    3323

    积分

    发布组

    积分
    3323
    发表于 2021-6-3 18:07:08 | 显示全部楼层 |阅读模式
    1. 帖子完整标题:不要进屋/别进屋 Dont.Go.in.the.House.1979.1080p.BluRay.x264-USURY 5.46GB
    复制代码



    译  名 不要进屋/别进屋
    片  名 Don't Go in the House
    年  代 1979
    产  地 美国
    类  别 惊悚 / 恐怖 / 犯罪
    语  言 英语
    上映日期 1980-03-28(美国)
    IMDb评分  5.7/10 from 3691 users
    IMDb链接  https://www.imdb.com/title/tt0080646/
    豆瓣评分 /10 from 0 users
    豆瓣链接 https://movie.douban.com/subject/1293338/
    片  长 82 分钟
    主  演 Tom Brumberger

    标  签 恐怖 | 犯罪 | 美国 | 惊悚 | cult | 精神病 | 暴力 | 美国电影

    简  介

      唐那德 柯勒尔有一个傲慢残忍的母亲柯勒尔夫人(Ruth Dardick饰)。为了除掉所谓附在柯勒尔身上的魔鬼,母亲屡次把他置于火上烘烤。多年后,柯勒尔长大成人,成为了新泽西州一名火炉工人。一日,工厂的焚烧炉发生意外泄漏事故,一名同事被喷射出的火焰烧伤,痛苦不堪,柯勒尔目睹了这一切,隐藏在心底那些惨痛的记忆再次浮现,于是他拒绝了朋友邀他喝酒压惊的建议,回到家中,发现他的体弱的母亲已经在熟睡中死去。柯勒尔终于永久地摆脱了肆虐成性的母亲,但多年来压抑在心底的痛苦和怨恨并没有因母亲的逝世而释怀,反而在连续的刺激下突然爆发,心理极度扭曲的他在家里设置一个金属铁屋和火焰喷射器,并将一个在跳舞时遇到了酷似母亲的长着亚麻色头发的女郎Kathy Jordan (Johanna Brushay饰)诱骗到家里,将她关入铁屋,用火焰喷射器烘烤她;柯勒尔自己则穿上母亲的衣服,以母亲当年的口吻斥责Jordan。夜幕低垂,柯勒尔又开始寻觅下一个长得象自己母亲的女郎……
    1. Video
    2. ID                                       : 1
    3. Format                                   : AVC
    4. Format/Info                              : Advanced Video Codec
    5. Format profile                           : High@L4
    6. Format settings, CABAC                   : Yes
    7. Format settings, ReFrames                : 4 frames
    8. Codec ID                                 : V_MPEG4/ISO/AVC
    9. Duration                                 : 1h 22mn
    10. Bit rate                                 : 8 995 Kbps
    11. Width                                    : 1 920 pixels
    12. Height                                   : 1 040 pixels
    13. Display aspect ratio                     : 1.85:1
    14. Frame rate mode                          : Constant
    15. Frame rate                               : 23.976 (24000/1001) fps
    16. Color space                              : YUV
    17. Chroma subsampling                       : 4:2:0
    18. Bit depth                                : 8 bits
    19. Scan type                                : Progressive
    20. Bits/(Pixel*Frame)                       : 0.188
    21. Stream size                              : 5.20 GiB (95%)
    22. Writing library                          : x264 core 146 r2538 121396c
    23. Encoding settings                        : cabac=1 / ref=4 / deblock=1:-1:-1 / analyse=0x3:0x113 / me=umh / subme=8 / psy=1 / psy_rd=1.00:0.15 / mixed_ref=1 / me_range=16 / chroma_me=1 / trellis=1 / 8x8dct=1 / cqm=0 / deadzone=21,11 / fast_pskip=0 / chroma_qp_offset=-3 / threads=6 / lookahead_threads=1 / sliced_threads=0 / nr=0 / decimate=1 / interlaced=0 / bluray_compat=0 / constrained_intra=0 / bframes=3 / b_pyramid=2 / b_adapt=2 / b_bias=0 / direct=3 / weightb=1 / open_gop=0 / weightp=2 / keyint=250 / keyint_min=23 / scenecut=40 / intra_refresh=0 / rc_lookahead=50 / rc=2pass / mbtree=1 / bitrate=8995 / ratetol=1.0 / qcomp=0.60 / qpmin=0 / qpmax=69 / qpstep=4 / cplxblur=20.0 / qblur=0.5 / ip_ratio=1.40 / aq=1:1.00
    24. Default                                  : Yes
    25. Forced                                   : No

    26. Audio
    27. ID                                       : 2
    28. Format                                   : DTS
    29. Format/Info                              : Digital Theater Systems
    30. Mode                                     : 16
    31. Format settings, Endianness              : Big
    32. Codec ID                                 : A_DTS
    33. Duration                                 : 1h 22mn
    34. Bit rate mode                            : Constant
    35. Bit rate                                 : 447 Kbps
    36. Channel(s)                               : 1 channel
    37. Channel positions                        : Front: C
    38. Sampling rate                            : 48.0 KHz
    39. Frame rate                               : 93.750 fps (512 spf)
    40. Bit depth                                : 24 bits
    41. Compression mode                         : Lossy
    42. Stream size                              : 265 MiB (5%)
    43. Language                                 : English
    44. Default                                  : Yes
    45. Forced                                   : No

    46. Menu
    47. 00:00:00.000                             : en:00:00:00.000
    48. 00:10:35.969                             : en:00:10:35.969
    49. 00:21:59.235                             : en:00:21:59.235
    50. 00:30:43.383                             : en:00:30:43.383
    51. 00:44:57.778                             : en:00:44:57.778
    52. 00:54:54.750                             : en:00:54:54.750
    53. 00:58:24.000                             : en:00:58:24.000
    54. 01:13:38.164                             : en:01:13:38.164
    55. 01:20:15.769                             : en:01:20:15.769
    复制代码







    本帖隐藏的内容需要VIP会员才可浏览,您需要升级才可浏览,点击这里升级VIP




    不要进屋/别进屋 Dont.Go.in.the.House.1979.1080p.BluRay.x264-USURY 5.46GB-1.png
    不要进屋/别进屋 Dont.Go.in.the.House.1979.1080p.BluRay.x264-USURY 5.46GB-2.png
    不要进屋/别进屋 Dont.Go.in.the.House.1979.1080p.BluRay.x264-USURY 5.46GB-3.png
    不要进屋/别进屋 Dont.Go.in.the.House.1979.1080p.BluRay.x264-USURY 5.46GB-4.png
    回复

    使用道具 举报

    该用户从未签到

    0

    主题

    1万

    帖子

    1万

    积分

    论坛元老

    Rank: 8Rank: 8

    积分
    16777
    发表于 2021-6-3 18:10:31 | 显示全部楼层
    回复 支持 反对

    使用道具 举报

    该用户从未签到

    0

    主题

    2万

    帖子

    2万

    积分

    论坛元老

    Rank: 8Rank: 8

    积分
    25556
    发表于 2021-6-3 18:42:07 | 显示全部楼层
    回复 支持 反对

    使用道具 举报

    该用户从未签到

    0

    主题

    958

    帖子

    431

    积分

    中级会员

    Rank: 3Rank: 3

    积分
    431
    发表于 2021-6-4 11:28:46 | 显示全部楼层
    回复 支持 反对

    使用道具 举报

    该用户从未签到

    0

    主题

    3119

    帖子

    2405

    积分

    金牌会员

    Rank: 6Rank: 6

    积分
    2405
    发表于 2021-6-6 06:16:01 | 显示全部楼层
    感谢楼主的无私分享!要想蓝光高清电影网好 就靠你我他
    回复 支持 反对

    使用道具 举报

    该用户从未签到

    0

    主题

    1028

    帖子

    737

    积分

    高级会员

    Rank: 4

    积分
    737
    发表于 2021-6-7 07:10:13 | 显示全部楼层
    回复 支持 反对

    使用道具 举报

  • TA的每日心情
    难过
    2020-12-3 18:09
  • 签到天数: 1 天

    [LV.1]初来乍到

    0

    主题

    134

    帖子

    2

    积分

    新手上路

    Rank: 1

    积分
    2
    发表于 2021-6-8 02:45:13 | 显示全部楼层
    提示: 作者被禁止或删除 内容自动屏蔽
    回复 支持 反对

    使用道具 举报

    该用户从未签到

    0

    主题

    1万

    帖子

    1万

    积分

    论坛元老

    Rank: 8Rank: 8

    积分
    16777
    发表于 2021-6-8 04:13:54 | 显示全部楼层
    回复 支持 反对

    使用道具 举报

    该用户从未签到

    0

    主题

    1万

    帖子

    1万

    积分

    论坛元老

    Rank: 8Rank: 8

    积分
    16777
    发表于 2021-6-10 10:02:28 | 显示全部楼层
    回复 支持 反对

    使用道具 举报

    该用户从未签到

    0

    主题

    970

    帖子

    626

    积分

    高级会员

    Rank: 4

    积分
    626
    发表于 2021-6-11 04:58:45 | 显示全部楼层

    是个好电影!必须要看的!多谢分享!
    回复 支持 反对

    使用道具 举报

    懒得打字嘛,点击右侧快捷回复 【右侧内容,后台自定义】
    您需要登录后才可以回帖 登录 | 立即注册

    本版积分规则

    郑重声明,本站所有作品片源来自互联网公开渠道,均为网友上传交流学习,影视版权均归原电影公司所有,如有侵犯版权,请与 2322694662@qq.com 联系,我们将立即删除。

    小黑屋|手机版|Archiver|百度统计|投诉|蓝光电影下载

    GMT+8, 2021-6-22 14:40 , Processed in 0.053143 second(s), 24 queries , Gzip On, MemCached On.

    Powered by Discuz! X3.4

    © 2001-2013 Comsenz Inc.

    快速回复 返回顶部 返回列表