快捷导航
查看: 422|回复: 13

[剧情] 神的病历簿2 The.Chart.of.Love.2014.JAPANESE.1080p.BluRay.x264-WiKi 7.18GB

[复制链接]
  • TA的每日心情
    无聊
    3 天前
  • 签到天数: 61 天

    [LV.6]常住居民II

    1623

    主题

    1684

    帖子

    3125

    积分

    发布组

    积分
    3125
    发表于 2021-6-3 18:31:38 | 显示全部楼层 |阅读模式
    1. 帖子完整标题:神的病历簿2 The.Chart.of.Love.2014.JAPANESE.1080p.BluRay.x264-WiKi 7.18GB
    复制代码



    译  名 神的病历簿2/God's Medical Records 2/上帝的处方2/上帝的诊疗簿2/神的病历本2/神的病历表2/神的诊疗簿2
    片  名 神様のカルテ2
    年  代 2014
    产  地 日本
    类  别 剧情
    语  言 日语
    上映日期 2014-03-21(日本)
    IMDb评分  6.9/10 from 57 users
    IMDb链接  https://www.imdb.com/title/tt2576828/
    豆瓣评分 7.9/10 from 4561 users
    豆瓣链接 https://movie.douban.com/subject/20445157/
    片  长 120分钟
    导  演 深川荣洋 Yoshihiro Fukagawa
    编  剧 后藤法子 Noriko Got? / 夏川草介 S?suke Natsukawa
    主  演 樱井翔 Sh? Sakurai
           宫崎葵 Aoi Miyazaki
           藤原龙也 Tatsuya Fujiwara
           柄本明 Akira Emoto
           原田泰造 Taizo Harada
           吹石一惠 Kazue Fukiishi
           市毛良枝 Yoshie Ichige
           滨田岳 Gaku Hamada
           吉濑美智子 Michiko Kichise
           要润 Jun Kaname
           藤本泉 Izumi Fujimoto
           佐藤二朗 Jir? Sat?
           池胁千鹤 Chizuru Ikewaki
           朝仓亚纪 Aki Asakura

    标  签 日本电影 | 温情 | 2014 | 剧情 | 治愈 | 人性 | 嵐 | 文艺

    简  介

      长期守候在本庄医院第一线的内科医生栗原一止(樱井翔 饰),即将和妻子榛名(宫崎葵 饰)迎接新生命的到来,但是工作和家庭间的矛盾也让他的内心升起隐隐的忧虑。与此同时,一止的医科大同学近藤辰也(藤原龙也 饰)作为血液科精英来到本庄医院。一止兴奋非常的同时,却发现曾经善良敬业的近藤变得冷漠无情。另一方面,常年驻守医院的恩师贯田诚太郎(柄本明 饰)突然病倒,很快便被诊断患有晚期淋巴癌。曾经为了医患牺牲家庭的贯田医生,总算迎来了和夫人千代(市毛良枝 饰)相守的短暂而珍贵的时光。医疗改革让病患们得到无微不至的关怀,但作为人而存在的医生则为此付出了更多、更多……
      
      本片根据夏川草芥的同名原作改编。

    获奖情况

      第1届豆瓣电影年度榜单 ?(2014)
      评分最高的日本电影(提名)
    1. Format                                   : Matroska
    2. Format version                           : Version 4 / Version 2
    3. File size                                : 7.04 GiB
    4. Duration                                 : 1h 56mn
    5. Overall bit rate                         : 8 663 Kbps
    6. Movie name                               : Jubowo @ WiKi
    7. Encoded date                             : UTC 2014-10-05 12:21:58
    8. Writing application                      : mkvmerge v6.8.0 (\'Theme for Great Cities\') 64bit built on Mar  2 2014 21:34:26
    9. Writing library                          : libebml v1.3.0 + libmatroska v1.4.1
    10. Attachment                               : Yes / Yes

    11. Video
    12. ID                                       : 1
    13. Format                                   : AVC
    14. Format/Info                              : Advanced Video Codec
    15. Format profile                           : High@L4
    16. Format settings, CABAC                   : Yes
    17. Format settings, ReFrames                : 5 frames
    18. Codec ID                                 : V_MPEG4/ISO/AVC
    19. Duration                                 : 1h 56mn
    20. Bit rate                                 : 8 000 Kbps
    21. Width                                    : 1 920 pixels
    22. Height                                   : 808 pixels
    23. Display aspect ratio                     : 2.40:1
    24. Frame rate mode                          : Constant
    25. Frame rate                               : 23.976 fps
    26. Color space                              : YUV
    27. Chroma subsampling                       : 4:2:0
    28. Bit depth                                : 8 bits
    29. Scan type                                : Progressive
    30. Bits/(Pixel*Frame)                       : 0.215
    31. Stream size                              : 6.38 GiB (91%)
    32. Writing library                          : x264 core 129 r2245+704+36 8e61944 tMod+MixAQ [High@L4:2:0 X86_64]
    33. Encoding settings                        : cabac=1 / ref=5 / deblock=1:-3:-3 / analyse=0x3:0x133 / me=umh / subme=11 / psy=1 / fade_compensate=0.00 / psy_rd=1.05:0.10 / mixed_ref=1 / me_range=32 / chroma_me=1 / trellis=2 / 8x8dct=1 / cqm=0 / deadzone=21,11 / fast_pskip=0 / chroma_qp_offset=-3 / threads=18 / lookahead_threads=3 / sliced_threads=0 / nr=0 / decimate=0 / interlaced=0 / bluray_compat=0 / constrained_intra=0 / fgo=0 / bframes=10 / b_pyramid=2 / b_adapt=2 / b_bias=0 / direct=3 / weightb=1 / open_gop=0 / weightp=2 / keyint=250 / keyint_min=23 / scenecut=40 / intra_refresh=0 / rc_lookahead=80 / rc=2pass / mbtree=1 / bitrate=8000 / ratetol=1.0 / qcomp=0.70 / qpmin=0 / qpmax=69 / qpstep=4 / cplxblur=20.0 / qblur=0.5 / ip_ratio=1.40 / aq=3 / aq-strength=0.90 / aq-sensitivity=10.00 / aq-ifactor=1.00 / aq-pfactor=1.00 / aq-bfactor=1.00 / aq2=0
    34. Language                                 : English
    35. Default                                  : Yes
    36. Forced                                   : No

    37. Audio
    38. ID                                       : 2
    39. Format                                   : AC-3
    40. Format/Info                              : Audio Coding 3
    41. Mode extension                           : CM (complete main)
    42. Format settings, Endianness              : Big
    43. Codec ID                                 : A_AC3
    44. Duration                                 : 1h 56mn
    45. Bit rate mode                            : Constant
    46. Bit rate                                 : 640 Kbps
    47. Channel(s)                               : 6 channels
    48. Channel positions                        : Front: L C R, Side: L R, LFE
    49. Sampling rate                            : 48.0 KHz
    50. Bit depth                                : 16 bits
    51. Compression mode                         : Lossy
    52. Stream size                              : 533 MiB (7%)
    53. Language                                 : Japanese
    54. Default                                  : Yes
    55. Forced                                   : No

    56. Text #1
    57. ID                                       : 3
    58. Format                                   : ASS
    59. Codec ID                                 : S_TEXT/ASS
    60. Codec ID/Info                            : Advanced Sub Station Alpha
    61. Compression mode                         : Lossless
    62. Title                                    : Simplified
    63. Language                                 : Chinese
    64. Default                                  : Yes
    65. Forced                                   : No

    66. Text #2
    67. ID                                       : 4
    68. Format                                   : ASS
    69. Codec ID                                 : S_TEXT/ASS
    70. Codec ID/Info                            : Advanced Sub Station Alpha
    71. Compression mode                         : Lossless
    72. Title                                    : Traditional
    73. Language                                 : Chinese
    74. Default                                  : No
    75. Forced                                   : No

    76. Menu
    77. 00:00:00.000                             : en:00:00:00.000
    78. 00:04:13.419                             : en:00:04:13.419
    79. 00:09:12.551                             : en:00:09:12.551
    80. 00:14:04.385                             : en:00:14:04.385
    81. 00:18:37.533                             : en:00:18:37.533
    82. 00:28:04.265                             : en:00:28:04.265
    83. 00:33:02.647                             : en:00:33:02.647
    84. 00:39:41.545                             : en:00:39:41.545
    85. 00:47:27.094                             : en:00:47:27.094
    86. 00:56:16.664                             : en:00:56:16.664
    87. 01:05:06.485                             : en:01:05:06.485
    88. 01:11:56.186                             : en:01:11:56.186
    89. 01:16:19.449                             : en:01:16:19.449
    90. 01:22:13.053                             : en:01:22:13.053
    91. 01:26:19.966                             : en:01:26:19.966
    92. 01:31:29.150                             : en:01:31:29.150
    93. 01:36:39.919                             : en:01:36:39.919
    94. 01:41:55.943                             : en:01:41:55.943
    95. 01:44:16.291                             : en:01:44:16.291
    96. 01:51:10.664                             : en:01:51:10.664
    复制代码







    本帖隐藏的内容需要VIP会员才可浏览,您需要升级才可浏览,点击这里升级VIP





    神的病历簿2 The.Chart.of.Love.2014.JAPANESE.1080p.BluRay.x264-WiKi 7.18GB-1.png
    神的病历簿2 The.Chart.of.Love.2014.JAPANESE.1080p.BluRay.x264-WiKi 7.18GB-2.png
    神的病历簿2 The.Chart.of.Love.2014.JAPANESE.1080p.BluRay.x264-WiKi 7.18GB-3.png
    神的病历簿2 The.Chart.of.Love.2014.JAPANESE.1080p.BluRay.x264-WiKi 7.18GB-4.png
    神的病历簿2 The.Chart.of.Love.2014.JAPANESE.1080p.BluRay.x264-WiKi 7.18GB-5.png
    神的病历簿2 The.Chart.of.Love.2014.JAPANESE.1080p.BluRay.x264-WiKi 7.18GB-6.png
    回复

    使用道具 举报

    该用户从未签到

    0

    主题

    1万

    帖子

    1万

    积分

    论坛元老

    Rank: 8Rank: 8

    积分
    16777
    发表于 2021-6-3 18:45:56 | 显示全部楼层

    是个好电影!必须要看的!多谢分享!
    回复 支持 反对

    使用道具 举报

  • TA的每日心情
    无聊
    昨天 17:58
  • 签到天数: 23 天

    [LV.4]偶尔看看III

    0

    主题

    213

    帖子

    538

    积分

    高级会员

    Rank: 4

    积分
    538
    发表于 2021-6-3 18:51:38 | 显示全部楼层

    这个帖子不回对不起自己!我想我是一天也不能离开蓝光电影网
    回复 支持 反对

    使用道具 举报

    该用户从未签到

    0

    主题

    1254

    帖子

    920

    积分

    高级会员

    Rank: 4

    积分
    920
    发表于 2021-6-3 18:51:38 | 显示全部楼层
    回复 支持 反对

    使用道具 举报

    该用户从未签到

    0

    主题

    1万

    帖子

    1万

    积分

    论坛元老

    Rank: 8Rank: 8

    积分
    15691
    发表于 2021-6-3 18:51:38 | 显示全部楼层
    回复 支持 反对

    使用道具 举报

  • TA的每日心情
    开心
    2021-6-9 23:47
  • 签到天数: 13 天

    [LV.3]偶尔看看II

    1

    主题

    1670

    帖子

    1995

    积分

    金牌会员

    Rank: 6Rank: 6

    积分
    1995
    发表于 2021-6-3 19:12:48 | 显示全部楼层
    回复 支持 反对

    使用道具 举报

    该用户从未签到

    0

    主题

    529

    帖子

    188

    积分

    注册会员

    Rank: 2

    积分
    188
    发表于 2021-6-3 21:54:58 | 显示全部楼层
    回复 支持 反对

    使用道具 举报

    该用户从未签到

    0

    主题

    1万

    帖子

    1万

    积分

    论坛元老

    Rank: 8Rank: 8

    积分
    15691
    发表于 2021-6-4 01:51:49 | 显示全部楼层
    楼主太厉害了!楼主,电影应该很好看我觉得蓝光电影下载真是个好地方!
    回复 支持 反对

    使用道具 举报

    该用户从未签到

    0

    主题

    946

    帖子

    791

    积分

    高级会员

    Rank: 4

    积分
    791
    发表于 2021-6-4 11:28:01 | 显示全部楼层

    非常精彩的电影,下来收藏,感谢楼主
    回复 支持 反对

    使用道具 举报

    该用户从未签到

    0

    主题

    529

    帖子

    188

    积分

    注册会员

    Rank: 2

    积分
    188
    发表于 2021-6-4 14:36:47 | 显示全部楼层
    回复 支持 反对

    使用道具 举报

    懒得打字嘛,点击右侧快捷回复 【右侧内容,后台自定义】
    您需要登录后才可以回帖 登录 | 立即注册

    本版积分规则

    郑重声明,本站所有作品片源来自互联网公开渠道,均为网友上传交流学习,影视版权均归原电影公司所有,如有侵犯版权,请与 2322694662@qq.com 联系,我们将立即删除。

    小黑屋|手机版|Archiver|百度统计|投诉|蓝光电影下载

    GMT+8, 2021-6-22 16:00 , Processed in 0.058242 second(s), 25 queries , Gzip On, MemCached On.

    Powered by Discuz! X3.4

    © 2001-2013 Comsenz Inc.

    快速回复 返回顶部 返回列表