快捷导航
查看: 522|回复: 12

[悬疑] 乌鸦/爱伦坡悬案:渡鸦疑云 The.Raven.2012.1080p.BluRay.x264.DTS-FGT 10.46GB

[复制链接]
  • TA的每日心情
    无聊
    3 天前
  • 签到天数: 61 天

    [LV.6]常住居民II

    1623

    主题

    1684

    帖子

    3125

    积分

    发布组

    积分
    3125
    发表于 2021-6-4 15:35:09 | 显示全部楼层 |阅读模式
    1. 帖子完整标题:乌鸦/爱伦坡悬案:渡鸦疑云 The.Raven.2012.1080p.BluRay.x264.DTS-FGT 10.46GB
    复制代码



    译  名 乌鸦/爱伦坡悬案:渡鸦疑云(台)/神探爱伦坡:黑鸦凶杀案(港)/神探爱伦坡:黑鸦疑云(台)
    片  名 The Raven
    年  代 2012
    产  地 美国
    类  别 悬疑 / 惊悚 / 犯罪
    语  言 英语
    上映日期 2012-03-09(英国) / 2012-04-27(美国)
    IMDb评分  6.4/10 from 81604 users
    IMDb链接  https://www.imdb.com/title/tt1486192/
    豆瓣评分 6.6/10 from 13611 users
    豆瓣链接 https://movie.douban.com/subject/3914547/
    片  长 111分钟
    导  演 詹姆斯·麦克特格 James McTeigue
    编  剧 Hannah Shakespeare
    主  演 约翰·库萨克 John Cusack
           爱丽丝·伊芙 Alice Eve
           卢克·伊万斯 Luke Evans
           布莱丹·格里森 Brendan Gleeson
           凯文·麦克纳利 Kevin McNally
           帕姆·费里斯 Pam Ferris
           山姆·哈兹尔丁 Sam Hazeldine
           查丽蒂·维克菲尔德 Charity Wakefield
           奥利弗·杰森-科恩 Oliver Jackson-Cohen

    标  签 悬疑 | 美国 | 惊悚 | 犯罪 | 推理 | 2012 | 哥特 | 剧情

    简  介

      影片虚构了爱伦·坡死前“神秘”的5天里发生的事情。
      
      巴尔的摩发生了一件母女同时被害的残忍凶杀案,当地警官艾迈特(卢克·伊万斯 Luke Evans 饰)调查后发现凶手的犯罪手段和爱伦·坡(约翰·库萨克 John Cusack 饰)小说中的手段一模一样。正当爱伦·坡被叫去警局询问时发生了另一件凶手案,手法依旧和参考他的小说。了解到凶手的方法后,艾迈特邀请爱伦·坡担当顾问协助破案。而随着案件的进一步深入,艾迈特发现,爱伦·坡会成为这个残忍杀人凶手的下一个行凶目标。正当大家全力保护爱伦·坡的安全时,岂料凶手竟然绑架了的他情人艾米丽(爱丽丝·伊芙 Alice Eve 饰)。到底谁才是真正的凶手,爱伦·坡是不是能用自己的小说来揭开这场杀人的游戏呢?
    1. Video
    2. ID                                       : 1
    3. Format                                   : AVC
    4. Format/Info                              : Advanced Video Codec
    5. Format profile                           : High@L4
    6. Format settings, CABAC                   : Yes
    7. Format settings, ReFrames                : 5 frames
    8. Codec ID                                 : V_MPEG4/ISO/AVC
    9. Duration                                 : 1h 50mn
    10. Bit rate                                 : 12.0 Mbps
    11. Width                                    : 1 920 pixels
    12. Height                                   : 800 pixels
    13. Display aspect ratio                     : 2.40:1
    14. Frame rate mode                          : Constant
    15. Frame rate                               : 23.976 (24000/1001) fps
    16. Color space                              : YUV
    17. Chroma subsampling                       : 4:2:0
    18. Bit depth                                : 8 bits
    19. Scan type                                : Progressive
    20. Bits/(Pixel*Frame)                       : 0.326
    21. Stream size                              : 9.08 GiB (87%)
    22. Writing library                          : x264 core 125 r2208 d9d2288
    23. Encoding settings                        : cabac=1 / ref=5 / deblock=1:-3:-3 / analyse=0x3:0x113 / me=umh / subme=11 / psy=1 / psy_rd=1.15:0.05 / mixed_ref=1 / me_range=48 / chroma_me=1 / trellis=2 / 8x8dct=1 / cqm=0 / deadzone=21,11 / fast_pskip=0 / chroma_qp_offset=-3 / threads=18 / lookahead_threads=3 / sliced_threads=0 / nr=0 / decimate=0 / interlaced=0 / bluray_compat=0 / constrained_intra=0 / bframes=8 / b_pyramid=2 / b_adapt=2 / b_bias=0 / direct=3 / weightb=1 / open_gop=0 / weightp=2 / keyint=240 / keyint_min=24 / scenecut=40 / intra_refresh=0 / rc_lookahead=120 / rc=2pass / mbtree=1 / bitrate=12000 / ratetol=1.0 / qcomp=0.70 / qpmin=0 / qpmax=69 / qpstep=4 / cplxblur=20.0 / qblur=0.5 / ip_ratio=1.30 / aq=1:0.85
    24. Language                                 : English
    25. Default                                  : Yes
    26. Forced                                   : Yes

    27. Audio
    28. ID                                       : 2
    29. Format                                   : DTS
    30. Format/Info                              : Digital Theater Systems
    31. Mode                                     : 16
    32. Format settings, Endianness              : Big
    33. Codec ID                                 : A_DTS
    34. Duration                                 : 1h 50mn
    35. Bit rate mode                            : Constant
    36. Bit rate                                 : 1 509 Kbps
    37. Channel(s)                               : 6 channels
    38. Channel positions                        : Front: L C R, Side: L R, LFE
    39. Sampling rate                            : 48.0 KHz
    40. Frame rate                               : 93.750 fps (512 spf)
    41. Bit depth                                : 24 bits
    42. Compression mode                         : Lossy
    43. Stream size                              : 1.17 GiB (11%)
    44. Language                                 : English
    45. Default                                  : No
    46. Forced                                   : No

    47. Text #1
    48. ID                                       : 3
    49. Format                                   : UTF-8
    50. Codec ID                                 : S_TEXT/UTF8
    51. Codec ID/Info                            : UTF-8 Plain Text
    52. Title                                    : English
    53. Language                                 : English
    54. Default                                  : No
    55. Forced                                   : No

    56. Text #2
    57. ID                                       : 4
    58. Format                                   : UTF-8
    59. Codec ID                                 : S_TEXT/UTF8
    60. Codec ID/Info                            : UTF-8 Plain Text
    61. Title                                    : English-SDH
    62. Language                                 : English
    63. Default                                  : No
    64. Forced                                   : No

    65. Menu
    66. 00:00:00.000                             : en:
    67. 00:06:00.651                             : en:
    68. 00:11:40.157                             : en:
    69. 00:17:30.007                             : en:
    70. 00:22:07.117                             : en:
    71. 00:26:51.693                             : en:
    72. 00:30:40.088                             : en:
    73. 00:34:42.830                             : en:
    74. 00:40:36.392                             : en:
    75. 00:44:30.667                             : en:
    76. 00:50:37.033                             : en:
    77. 00:57:26.609                             : en:
    78. 01:01:36.901                             : en:
    79. 01:06:30.569                             : en:
    80. 01:12:28.260                             : en:
    81. 01:18:23.865                             : en:
    82. 01:24:18.928                             : en:
    83. 01:27:40.463                             : en:
    84. 01:34:01.344                             : en:
    85. 01:40:39.742                             : en:
    复制代码







    本帖隐藏的内容需要VIP会员才可浏览,您需要升级才可浏览,点击这里升级VIP





    乌鸦/爱伦坡悬案:渡鸦疑云 The.Raven.2012.1080p.BluRay.x264.DTS-FGT 10.46GB-1.png
    乌鸦/爱伦坡悬案:渡鸦疑云 The.Raven.2012.1080p.BluRay.x264.DTS-FGT 10.46GB-2.png
    乌鸦/爱伦坡悬案:渡鸦疑云 The.Raven.2012.1080p.BluRay.x264.DTS-FGT 10.46GB-3.png
    乌鸦/爱伦坡悬案:渡鸦疑云 The.Raven.2012.1080p.BluRay.x264.DTS-FGT 10.46GB-4.png
    乌鸦/爱伦坡悬案:渡鸦疑云 The.Raven.2012.1080p.BluRay.x264.DTS-FGT 10.46GB-5.png
    乌鸦/爱伦坡悬案:渡鸦疑云 The.Raven.2012.1080p.BluRay.x264.DTS-FGT 10.46GB-6.png
    回复

    使用道具 举报

    该用户从未签到

    0

    主题

    4202

    帖子

    3563

    积分

    论坛元老

    Rank: 8Rank: 8

    积分
    3563
    发表于 2021-6-4 16:29:06 | 显示全部楼层
    感谢楼主的无私分享!要想蓝光高清电影网好 就靠你我他
    回复 支持 反对

    使用道具 举报

    该用户从未签到

    0

    主题

    2万

    帖子

    2万

    积分

    论坛元老

    Rank: 8Rank: 8

    积分
    25556
    发表于 2021-6-4 17:08:02 | 显示全部楼层
    回复 支持 反对

    使用道具 举报

    该用户从未签到

    0

    主题

    2万

    帖子

    2万

    积分

    论坛元老

    Rank: 8Rank: 8

    积分
    25556
    发表于 2021-6-4 17:22:01 | 显示全部楼层
    这个帖子不回对不起自己!我想我是一天也不能离开蓝光电影网
    回复 支持 反对

    使用道具 举报

    该用户从未签到

    0

    主题

    4794

    帖子

    2186

    积分

    金牌会员

    Rank: 6Rank: 6

    积分
    2186
    发表于 2021-6-6 11:12:38 | 显示全部楼层
    回复 支持 反对

    使用道具 举报

    该用户从未签到

    0

    主题

    2万

    帖子

    2万

    积分

    论坛元老

    Rank: 8Rank: 8

    积分
    25556
    发表于 2021-6-8 05:38:33 | 显示全部楼层
    回复 支持 反对

    使用道具 举报

    该用户从未签到

    0

    主题

    2万

    帖子

    2万

    积分

    论坛元老

    Rank: 8Rank: 8

    积分
    25556
    发表于 2021-6-9 03:16:19 | 显示全部楼层
    回复 支持 反对

    使用道具 举报

    该用户从未签到

    0

    主题

    2万

    帖子

    2万

    积分

    论坛元老

    Rank: 8Rank: 8

    积分
    25556
    发表于 2021-6-9 15:44:43 | 显示全部楼层
    回复 支持 反对

    使用道具 举报

  • TA的每日心情
    开心
    2021-6-9 23:47
  • 签到天数: 13 天

    [LV.3]偶尔看看II

    1

    主题

    1670

    帖子

    1995

    积分

    金牌会员

    Rank: 6Rank: 6

    积分
    1995
    发表于 2021-6-11 05:15:24 | 显示全部楼层
    回复 支持 反对

    使用道具 举报

    该用户从未签到

    0

    主题

    1万

    帖子

    1万

    积分

    论坛元老

    Rank: 8Rank: 8

    积分
    16777
    发表于 2021-6-11 15:38:25 | 显示全部楼层
    回复 支持 反对

    使用道具 举报

    懒得打字嘛,点击右侧快捷回复 【右侧内容,后台自定义】
    您需要登录后才可以回帖 登录 | 立即注册

    本版积分规则

    郑重声明,本站所有作品片源来自互联网公开渠道,均为网友上传交流学习,影视版权均归原电影公司所有,如有侵犯版权,请与 2322694662@qq.com 联系,我们将立即删除。

    小黑屋|手机版|Archiver|百度统计|投诉|蓝光电影下载

    GMT+8, 2021-6-22 14:48 , Processed in 0.057529 second(s), 26 queries , Gzip On, MemCached On.

    Powered by Discuz! X3.4

    © 2001-2013 Comsenz Inc.

    快速回复 返回顶部 返回列表