快捷导航
查看: 432|回复: 16

[喜剧] 雷鸟特攻队/雷鸟惊航 Thunderbirds.2004.1080p.BluRay.x264-PSYCHD 7.66GB

[复制链接]
  • TA的每日心情
    擦汗
    3 天前
  • 签到天数: 69 天

    [LV.6]常住居民II

    1529

    主题

    1600

    帖子

    3323

    积分

    发布组

    积分
    3323
    发表于 2021-6-9 22:43:45 | 显示全部楼层 |阅读模式
    1. 帖子完整标题:雷鸟特攻队/雷鸟惊航 Thunderbirds.2004.1080p.BluRay.x264-PSYCHD 7.66GB
    复制代码
    雷鸟特攻队/雷鸟惊航 Thunderbirds.2004.1080p.BluRay.x264-PSYCHD 7.66GB-1.png


    译  名 雷鸟特攻队/雷鸟惊航/雷鸟神机队
    片  名 Thunderbirds
    年  代 2004
    产  地 英国,法国
    类  别 喜剧 / 动作 / 科幻 / 家庭 / 冒险 / 荒诞
    语  言 英语
    上映日期 2004-07-23(英国) / 2005-04-15(中国大陆)
    IMDb评分  4.3/10 from 12967 users
    IMDb链接  https://www.imdb.com/title/tt0167456/
    豆瓣评分 5.3/10 from 368 users
    豆瓣链接 https://movie.douban.com/subject/1309113/
    导  演 乔纳森·弗雷克斯 Jonathan Frakes
    编  剧 彼得·休伊特 Peter Hewitt / 迈克尔·麦库勒斯 Michael McCullers / 盖瑞·安德森 Gerry Anderson
    主  演 安东尼·爱德华兹 Anthony Edwards
           巴斯卡尔·帕特尔 Bhasker Patel
           吉妮·弗朗西斯 Genie Francis
           莱斯·施拉普内尔 Lex Shrapnel
           罗斯·基冈 Rose Keegan
           索菲娅·迈尔斯 Sophia Myles
           菲利普·文切斯特 Philip Winchester
           Dominic Colenso
           索伦·弗尔顿 Soren Fulton
           本·金斯利 Ben Kingsley
           比尔·帕克斯顿 Bill Paxton
           Mark Nelmes
           布拉迪·科贝特 Brady Corbet
           凡妮莎·哈金斯 Vanessa Hudgens
           Ben Torgersen

    标  签 科幻 | 美国 | 喜剧 | 美国电影 | 家庭 | 动作 | 冒险 | 电影

    简  介

      2065年,美国退役宇航员杰夫·特雷西(比尔·帕克斯顿)和他的5个儿子组成了一支名为“雷鸟”的太空救援队。他们利用火箭等运输工具去帮助那些遇到麻烦的人们。火箭飞船设计天才布莱恩斯(安东尼·爱德华兹)以及可爱女郎佩妮洛普(索非亚·迈尔斯)等人则是“雷鸟”们忠实的伙伴。这些人凭着善良和勇气令无数人脱离险境。
      
      一次,亚里斯托特尔·斯波德(本·金斯利)统领下的邪恶集团攻击了杰夫等人所居住的小岛。而这场精心策划的阴谋目的是为了利用“雷鸟”来从事犯罪。于是,一场惊心动魄的大战开始了。
      
      杰夫·特雷西5个儿子中最小的一个--阿兰(布拉迪·科贝特)在这次较量中显示出过人的胆气和天赋,正是他机智神勇的斗争使父兄们转危为安,“雷鸟”们笑到了最后。
    1. Video
    2. ID                                       : 1
    3. Format                                   : AVC
    4. Format/Info                              : Advanced Video Codec
    5. Format profile                           : High@L4
    6. Format settings                          : CABAC / 4 Ref Frames
    7. Format settings, CABAC                   : Yes
    8. Format settings, Reference frames        : 4 frames
    9. Codec ID                                 : V_MPEG4/ISO/AVC
    10. Duration                                 : 1 h 34 min
    11. Bit rate                                 : 10.1 Mb/s
    12. Width                                    : 1 920 pixels
    13. Height                                   : 1 040 pixels
    14. Display aspect ratio                     : 1.85:1
    15. Frame rate mode                          : Constant
    16. Frame rate                               : 23.976 (24000/1001/189150) FPS
    17. Color space                              : YUV
    18. Chroma subsampling                       : 4:2:0
    19. Bit depth                                : 8 bits
    20. Scan type                                : Progressive
    21. Bits/(Pixel*Frame)                       : 0.210
    22. Stream size                              : 6.50 GiB (85%)
    23. Writing library                          : x264 core 158 r2984 3759fcb
    24. Encoding settings                        : cabac=1 / ref=4 / deblock=1:-3:-3 / analyse=0x3:0x113 / me=umh / subme=8 / psy=1 / psy_rd=1.10:0.00 / mixed_ref=1 / me_range=32 / chroma_me=1 / trellis=2 / 8x8dct=1 / cqm=0 / deadzone=21,11 / fast_pskip=1 / chroma_qp_offset=-2 / threads=32 / lookahead_threads=5 / sliced_threads=0 / nr=0 / decimate=1 / interlaced=0 / bluray_compat=0 / constrained_intra=0 / bframes=3 / b_pyramid=2 / b_adapt=2 / b_bias=0 / direct=3 / weightb=1 / open_gop=0 / weightp=2 / keyint=240 / keyint_min=24 / scenecut=40 / intra_refresh=0 / rc_lookahead=50 / rc=2pass / mbtree=1 / bitrate=10052 / ratetol=1.0 / qcomp=0.60 / qpmin=0 / qpmax=69 / qpstep=4 / cplxblur=20.0 / qblur=0.5 / ip_ratio=1.40 / aq=3:0.75
    25. Default                                  : Yes
    26. Forced                                   : No
    27. Statistics Tags Issue                    : no_variable_data 1970-01-01 00:00:00 / no_variable_data 2010-02-22 21:41:29
    28. FromStats_BitRate                        : 10044460
    29. FromStats_Duration                       : 01:34:43.595000000
    30. FromStats_FrameCount                     : 136270
    31. FromStats_StreamSize                     : 7136080503

    32. Audio
    33. ID                                       : 2
    34. Format                                   : DTS
    35. Format/Info                              : Digital Theater Systems
    36. Codec ID                                 : A_DTS
    37. Duration                                 : 1 h 34 min
    38. Bit rate mode                            : Constant
    39. Bit rate                                 : 1 509 kb/s
    40. Channel(s)                               : 6 channels
    41. Channel layout                           : C L R Ls Rs LFE
    42. Sampling rate                            : 48.0 kHz
    43. Frame rate                               : 93.750 FPS (512 SPF)
    44. Bit depth                                : 24 bits
    45. Compression mode                         : Lossy
    46. Stream size                              : 1 022 MiB (13%)
    47. Language                                 : English
    48. Default                                  : Yes
    49. Forced                                   : No
    50. Statistics Tags Issue                    : no_variable_data 1970-01-01 00:00:00 / no_variable_data 2010-02-22 21:41:29
    51. FromStats_BitRate                        : 1508999
    52. FromStats_Duration                       : 01:34:43.563000000
    53. FromStats_FrameCount                     : 532834
    54. FromStats_StreamSize                     : 1072062008

    55. Text #1
    56. ID                                       : 3
    57. Format                                   : UTF-8
    58. Codec ID                                 : S_TEXT/UTF8
    59. Codec ID/Info                            : UTF-8 Plain Text
    60. Language                                 : English
    61. Default                                  : No
    62. Forced                                   : No
    63. Statistics Tags Issue                    : no_variable_data 1970-01-01 00:00:00 / no_variable_data 2010-02-22 21:41:29
    64. FromStats_BitRate                        : 65
    65. FromStats_Duration                       : 01:27:54.185000000
    66. FromStats_FrameCount                     : 1056
    67. FromStats_StreamSize                     : 42948

    68. Text #2
    69. ID                                       : 4
    70. Format                                   : UTF-8
    71. Codec ID                                 : S_TEXT/UTF8
    72. Codec ID/Info                            : UTF-8 Plain Text
    73. Title                                    : SDH
    74. Language                                 : English
    75. Default                                  : No
    76. Forced                                   : No
    77. Statistics Tags Issue                    : no_variable_data 1970-01-01 00:00:00 / no_variable_data 2010-02-22 21:41:29
    78. FromStats_BitRate                        : 75
    79. FromStats_Duration                       : 01:28:33.892000000
    80. FromStats_FrameCount                     : 1169
    81. FromStats_StreamSize                     : 50332

    82. Menu
    83. 00:00:00.000                             : en:Chapter 01
    84. 00:03:54.067                             : en:Chapter 02
    85. 00:12:10.730                             : en:Chapter 03
    86. 00:19:01.140                             : en:Chapter 04
    87. 00:24:05.444                             : en:Chapter 05
    88. 00:39:04.342                             : en:Chapter 06
    89. 00:45:17.715                             : en:Chapter 07
    90. 00:50:22.019                             : en:Chapter 08
    91. 01:00:07.604                             : en:Chapter 09
    92. 01:10:08.371                             : en:Chapter 10
    93. 01:23:35.010                             : en:Chapter 11
    94. 01:25:59.154                             : en:Chapter 12
    复制代码

    雷鸟特攻队/雷鸟惊航 Thunderbirds.2004.1080p.BluRay.x264-PSYCHD 7.66GB-2.png
    本帖隐藏的内容需要VIP会员才可浏览,您需要升级才可浏览,点击这里升级VIP





    回复

    使用道具 举报

    该用户从未签到

    0

    主题

    958

    帖子

    431

    积分

    中级会员

    Rank: 3Rank: 3

    积分
    431
    发表于 2021-6-9 22:44:05 | 显示全部楼层
    回复 支持 反对

    使用道具 举报

    该用户从未签到

    0

    主题

    1万

    帖子

    1万

    积分

    论坛元老

    Rank: 8Rank: 8

    积分
    16777
    发表于 2021-6-9 22:59:53 | 显示全部楼层
    回复 支持 反对

    使用道具 举报

    该用户从未签到

    0

    主题

    1万

    帖子

    1万

    积分

    论坛元老

    Rank: 8Rank: 8

    积分
    15691
    发表于 2021-6-10 01:40:34 | 显示全部楼层
    回复 支持 反对

    使用道具 举报

    该用户从未签到

    0

    主题

    958

    帖子

    431

    积分

    中级会员

    Rank: 3Rank: 3

    积分
    431
    发表于 2021-6-10 03:47:37 | 显示全部楼层
    回复 支持 反对

    使用道具 举报

    该用户从未签到

    0

    主题

    4202

    帖子

    3563

    积分

    论坛元老

    Rank: 8Rank: 8

    积分
    3563
    发表于 2021-6-10 08:04:00 | 显示全部楼层

    是个好电影!必须要看的!多谢分享!
    回复 支持 反对

    使用道具 举报

    该用户从未签到

    0

    主题

    2万

    帖子

    2万

    积分

    论坛元老

    Rank: 8Rank: 8

    积分
    25556
    发表于 2021-6-10 08:16:12 | 显示全部楼层
    回复 支持 反对

    使用道具 举报

    该用户从未签到

    0

    主题

    3845

    帖子

    2334

    积分

    金牌会员

    Rank: 6Rank: 6

    积分
    2334
    发表于 2021-6-10 09:59:55 | 显示全部楼层
    回复 支持 反对

    使用道具 举报

    该用户从未签到

    0

    主题

    1万

    帖子

    1万

    积分

    论坛元老

    Rank: 8Rank: 8

    积分
    15691
    发表于 2021-6-10 16:58:55 | 显示全部楼层
    这个帖子不回对不起自己!我想我是一天也不能离开蓝光电影网
    回复 支持 反对

    使用道具 举报

    该用户从未签到

    0

    主题

    1495

    帖子

    997

    积分

    金牌会员

    Rank: 6Rank: 6

    积分
    997
    发表于 2021-6-10 17:00:52 | 显示全部楼层
    回复 支持 反对

    使用道具 举报

    懒得打字嘛,点击右侧快捷回复 【右侧内容,后台自定义】
    您需要登录后才可以回帖 登录 | 立即注册

    本版积分规则

    郑重声明,本站所有作品片源来自互联网公开渠道,均为网友上传交流学习,影视版权均归原电影公司所有,如有侵犯版权,请与 2322694662@qq.com 联系,我们将立即删除。

    小黑屋|手机版|Archiver|百度统计|投诉|蓝光电影下载

    GMT+8, 2021-6-22 16:06 , Processed in 0.061173 second(s), 27 queries , Gzip On, MemCached On.

    Powered by Discuz! X3.4

    © 2001-2013 Comsenz Inc.

    快速回复 返回顶部 返回列表