快捷导航
查看: 574|回复: 17

[惊悚] 驱魔人前传/大法师: 吸魂首部曲 Exorcist.The.Beginning.2004.1080p.BluRay.x264-LCHD 7.64GB

[复制链接]
  • TA的每日心情
    无聊
    3 天前
  • 签到天数: 61 天

    [LV.6]常住居民II

    1623

    主题

    1684

    帖子

    3125

    积分

    发布组

    积分
    3125
    发表于 2021-6-9 22:44:27 | 显示全部楼层 |阅读模式
    1. 帖子完整标题:驱魔人前传/大法师: 吸魂首部曲 Exorcist.The.Beginning.2004.1080p.BluRay.x264-LCHD 7.64GB
    复制代码



    译  名 驱魔人前传/大法师: 吸魂首部曲
    片  名 Exorcist: The Beginning
    年  代 2004
    产  地 美国
    类  别 惊悚 / 恐怖
    语  言 英语
    上映日期 2004-08-20
    IMDb评分  5.2/10 from 32931 users
    IMDb链接  https://www.imdb.com/title/tt0204313/
    豆瓣评分 6.5/10 from 4216 users
    豆瓣链接 https://movie.douban.com/subject/1303237/
    片  长 114 分钟
    导  演 雷尼·哈林 Renny Harlin
    编  剧 卡勒伯·卡尔 Caleb Carr / 小威廉·威谢尔 William Wisher Jr. / 威廉·皮特·布拉蒂 William Peter Blatty
    主  演 斯特兰·斯卡斯加德 Stellan Skarsg?rd
           伊莎贝拉·斯科鲁普科 Izabella Scorupco
           詹姆斯·达西 James D'Arcy
           阿兰·福德 Alan Ford
           罗伯托·普维斯 Roberto Purvis
           本·克劳斯 Ben Cross
           Remy Sweeney
           拉尔夫·布朗 Ralph Brown
           大卫·布拉德利 David Bradley
           安东尼·卡默林 Antonie Kamerling
           朱利安·沃德姆 Julian Wadham
           Rupert Degas

    标  签 恐怖 | 宗教 | 美国 | 惊悚 | 美国电影 | 灵异 | 2004 | 魔幻

    简  介

      1949年的开罗。考古学家、战争时曾担任牧师的梅林(斯特兰?斯卡斯加德 Stellan Skarsg?rd 饰)接到一份工作,将前往肯尼亚参与发掘一座五世纪的教堂,委托人了解梅林在圣神像领域的专长,要求他取得一个苏美尔风格的恶魔像。梅林来到肯尼亚,与教廷派来的神父汇合,才得知教廷对这座五世纪的教堂一无所知,而这座教堂本身充满了疑点。在发掘队医生莎拉(伊沙贝拉?斯科鲁普科 Izabella Scorupco 饰)等人的介绍下,梅林发现整个发掘过程也充满诡异现象,考古学家贝松在发掘中发疯,而贝松画出的图画,分明与梅林看到的恶魔像如出一辙。同时,发掘营地的孩子出现了被“恶魔触碰”的状况,浑身抽搐却能操纵土狼。梅林等人似乎在恶魔的诅咒中越陷越深……
    1. Video
    2. ID                                       : 1
    3. Format                                   : AVC
    4. Format/Info                              : Advanced Video Codec
    5. Format profile                           : High@L4
    6. Format settings                          : CABAC / 5 Ref Frames
    7. Format settings, CABAC                   : Yes
    8. Format settings, Reference frames        : 5 frames
    9. Codec ID                                 : V_MPEG4/ISO/AVC
    10. Duration                                 : 1 h 53 min
    11. Bit rate                                 : 8 124 kb/s
    12. Width                                    : 1 920 pixels
    13. Height                                   : 816 pixels
    14. Display aspect ratio                     : 2.35:1
    15. Frame rate mode                          : Constant
    16. Frame rate                               : 23.976 (24000/1001/189150) FPS
    17. Color space                              : YUV
    18. Chroma subsampling                       : 4:2:0
    19. Bit depth                                : 8 bits
    20. Scan type                                : Progressive
    21. Bits/(Pixel*Frame)                       : 0.216
    22. Stream size                              : 6.29 GiB (82%)
    23. Writing library                          : x264 core 142 r2479 dd79a61
    24. Encoding settings                        : cabac=1 / ref=5 / deblock=1:-1:-1 / analyse=0x3:0x113 / me=umh / subme=7 / psy=1 / psy_rd=1.00:0.00 / mixed_ref=1 / me_range=16 / chroma_me=1 / trellis=1 / 8x8dct=1 / cqm=0 / deadzone=21,11 / fast_pskip=1 / chroma_qp_offset=-2 / threads=12 / lookahead_threads=2 / sliced_threads=0 / nr=0 / decimate=1 / interlaced=0 / bluray_compat=0 / constrained_intra=0 / bframes=3 / b_pyramid=2 / b_adapt=2 / b_bias=0 / direct=3 / weightb=1 / open_gop=0 / weightp=2 / keyint=250 / keyint_min=23 / scenecut=40 / intra_refresh=0 / rc_lookahead=40 / rc=2pass / mbtree=1 / bitrate=8124 / ratetol=1.0 / qcomp=0.60 / qpmin=0 / qpmax=69 / qpstep=4 / cplxblur=20.0 / qblur=0.5 / vbv_maxrate=50000 / vbv_bufsize=50000 / nal_hrd=none / filler=0 / ip_ratio=1.40 / aq=1:1.00
    25. Language                                 : English
    26. Default                                  : Yes
    27. Forced                                   : No

    28. Audio
    29. ID                                       : 2
    30. Format                                   : DTS
    31. Format/Info                              : Digital Theater Systems
    32. Codec ID                                 : A_DTS
    33. Duration                                 : 1 h 53 min
    34. Bit rate mode                            : Constant
    35. Bit rate                                 : 1 509 kb/s
    36. Channel(s)                               : 6 channels
    37. Channel layout                           : C L R Ls Rs LFE
    38. Sampling rate                            : 48.0 kHz
    39. Frame rate                               : 93.750 FPS (512 SPF)
    40. Bit depth                                : 24 bits
    41. Compression mode                         : Lossy
    42. Stream size                              : 1.20 GiB (16%)
    43. Language                                 : English
    44. Default                                  : Yes
    45. Forced                                   : No
    复制代码






    本帖隐藏的内容需要VIP会员才可浏览,您需要升级才可浏览,点击这里升级VIP





    驱魔人前传/大法师: 吸魂首部曲 Exorcist.The.Beginning.2004.1080p.BluRay.x264-LCHD 7.64GB-1.png
    驱魔人前传/大法师: 吸魂首部曲 Exorcist.The.Beginning.2004.1080p.BluRay.x264-LCHD 7.64GB-2.png
    驱魔人前传/大法师: 吸魂首部曲 Exorcist.The.Beginning.2004.1080p.BluRay.x264-LCHD 7.64GB-3.png
    回复

    使用道具 举报

    该用户从未签到

    0

    主题

    4794

    帖子

    2186

    积分

    金牌会员

    Rank: 6Rank: 6

    积分
    2186
    发表于 2021-6-10 00:50:55 | 显示全部楼层
    这个帖子不回对不起自己!我想我是一天也不能离开蓝光电影网
    回复 支持 反对

    使用道具 举报

    该用户从未签到

    0

    主题

    4794

    帖子

    2186

    积分

    金牌会员

    Rank: 6Rank: 6

    积分
    2186
    发表于 2021-6-10 01:40:36 | 显示全部楼层
    回复 支持 反对

    使用道具 举报

    该用户从未签到

    0

    主题

    2万

    帖子

    2万

    积分

    论坛元老

    Rank: 8Rank: 8

    积分
    25556
    发表于 2021-6-10 03:50:22 | 显示全部楼层
    回复 支持 反对

    使用道具 举报

    该用户从未签到

    0

    主题

    4202

    帖子

    3563

    积分

    论坛元老

    Rank: 8Rank: 8

    积分
    3563
    发表于 2021-6-10 05:18:08 | 显示全部楼层

    非常精彩的电影,下来收藏,感谢楼主
    回复 支持 反对

    使用道具 举报

    该用户从未签到

    0

    主题

    2万

    帖子

    2万

    积分

    论坛元老

    Rank: 8Rank: 8

    积分
    25556
    发表于 2021-6-10 08:05:03 | 显示全部楼层
    回复 支持 反对

    使用道具 举报

    该用户从未签到

    0

    主题

    998

    帖子

    597

    积分

    高级会员

    Rank: 4

    积分
    597
    发表于 2021-6-10 08:16:12 | 显示全部楼层
    回复 支持 反对

    使用道具 举报

  • TA的每日心情
    开心
    2021-6-9 23:47
  • 签到天数: 13 天

    [LV.3]偶尔看看II

    1

    主题

    1670

    帖子

    1995

    积分

    金牌会员

    Rank: 6Rank: 6

    积分
    1995
    发表于 2021-6-10 11:03:07 | 显示全部楼层
    楼主太厉害了!楼主,电影应该很好看我觉得蓝光电影下载真是个好地方!
    回复 支持 反对

    使用道具 举报

    该用户从未签到

    0

    主题

    1万

    帖子

    1万

    积分

    论坛元老

    Rank: 8Rank: 8

    积分
    16777
    发表于 2021-6-10 17:00:33 | 显示全部楼层

    是个好电影!必须要看的!多谢分享!
    回复 支持 反对

    使用道具 举报

  • TA的每日心情
    无聊
    昨天 17:58
  • 签到天数: 23 天

    [LV.4]偶尔看看III

    0

    主题

    213

    帖子

    538

    积分

    高级会员

    Rank: 4

    积分
    538
    发表于 2021-6-10 18:08:17 | 显示全部楼层

    这个帖子不回对不起自己!我想我是一天也不能离开蓝光电影网
    回复 支持 反对

    使用道具 举报

    懒得打字嘛,点击右侧快捷回复 【右侧内容,后台自定义】
    您需要登录后才可以回帖 登录 | 立即注册

    本版积分规则

    郑重声明,本站所有作品片源来自互联网公开渠道,均为网友上传交流学习,影视版权均归原电影公司所有,如有侵犯版权,请与 2322694662@qq.com 联系,我们将立即删除。

    小黑屋|手机版|Archiver|百度统计|投诉|蓝光电影下载

    GMT+8, 2021-6-22 14:59 , Processed in 0.057974 second(s), 28 queries , Gzip On, MemCached On.

    Powered by Discuz! X3.4

    © 2001-2013 Comsenz Inc.

    快速回复 返回顶部 返回列表