快捷导航
查看: 500|回复: 17

[剧情] 清洗 Purge.2012.1080p.BluRay.x264-MCHD 8.74GB

[复制链接]
  • TA的每日心情
    无聊
    3 天前
  • 签到天数: 61 天

    [LV.6]常住居民II

    1623

    主题

    1684

    帖子

    3125

    积分

    发布组

    积分
    3125
    发表于 2021-6-9 22:47:05 | 显示全部楼层 |阅读模式
    1. 帖子完整标题:清洗 Purge.2012.1080p.BluRay.x264-MCHD 8.74GB
    复制代码
    清洗 Purge.2012.1080p.BluRay.x264-MCHD 8.74GB-1.png


    译  名 清洗/Purge/清除
    片  名 Puhdistus
    年  代 2012
    产  地 爱沙尼亚,芬兰
    类  别 剧情
    语  言 芬兰语
    上映日期 2012-09-07(爱沙尼亚/芬兰)
    IMDb评分  7.1/10 from 3468 users
    IMDb链接  https://www.imdb.com/title/tt1714205/
    豆瓣评分 7.7/10 from 194 users
    豆瓣链接 https://movie.douban.com/subject/19898481/
    片  长 125分钟
    导  演 安提·乔金恩 Antti Jokinen
    编  剧 马尔科·雷诺 Marko Leino / 安提·乔金恩 Antti Jokinen / Sofi Oksanen
    主  演 阿曼达·皮尔克 Amanda Pilke
           Liisi Tandefelt
           彼得·弗兰森 Peter Franzén
           汤米·柯贝拉 Tommi Korpela
           Kristjan Sarv
           Jarmo M?kinen
           劳拉·布林 Laura Birn
           克里斯塔·科索恩 Krista Kosonen
           塔维·艾尔玛 Taavi Eelmaa

    标  签 芬兰 | 爱沙尼亚 | 历史 | 剧情 | 犯罪 | 2012 | 欧洲电影 | 爱沙尼亚电影

    简  介

      《清洗》通过老少两代的悲惨遭遇,连缀了20世纪的爱沙尼亚史,其间充满了虐行、强暴、恐惧和背叛。须知暴君当道时,身为女性,往往被剥夺更多。
      
      故事始于1992年的爱沙尼亚,家住农庄的老太太阿丽德在自家院子里发现了仪容不整、身有虐伤的姑娘萨拉,她自述出生于符拉迪沃斯托克,被拐到西方,卖做性奴,侥幸逃脱“老公”的毒手,在俄国黑手党肉贩帕夏一路追拿之下,慌不择路,误入农家。老太太动了仁心,收留萨拉,却搞不清这姑娘为何会讲爱沙尼亚语,不久更发现她随身携带的一张旧像,方知萨拉的出现非为误走误撞,实为有意寻访。旧社会的伤疤层层揭开,五十年来老太太难以启齿的秘密往事,一家几代人的悲剧故事也渐次展现。

    获奖情况

      第17届金卫星奖 ?(2012)
      电影部门剧情片最佳女主角(提名) 劳拉·布林
    1. Video
    2. ID                                       : 1
    3. Format                                   : AVC
    4. Format/Info                              : Advanced Video Codec
    5. Format profile                           : High@L4
    6. Format settings                          : CABAC / 5 Ref Frames
    7. Format settings, CABAC                   : Yes
    8. Format settings, Reference frames        : 5 frames
    9. Codec ID                                 : V_MPEG4/ISO/AVC
    10. Duration                                 : 2 h 5 min
    11. Bit rate                                 : 9 241 kb/s
    12. Width                                    : 1 920 pixels
    13. Height                                   : 816 pixels
    14. Display aspect ratio                     : 2.35:1
    15. Frame rate mode                          : Constant
    16. Frame rate                               : 23.976 (24000/1001/189150) FPS
    17. Color space                              : YUV
    18. Chroma subsampling                       : 4:2:0
    19. Bit depth                                : 8 bits
    20. Scan type                                : Progressive
    21. Bits/(Pixel*Frame)                       : 0.246
    22. Stream size                              : 7.89 GiB (90%)
    23. Writing library                          : x264 core 128 r2216 198a7ea
    24. Encoding settings                        : cabac=1 / ref=5 / deblock=1:0:0 / analyse=0x3:0x133 / me=umh / subme=7 / psy=1 / psy_rd=1.00:0.00 / mixed_ref=1 / me_range=16 / chroma_me=1 / trellis=1 / 8x8dct=1 / cqm=0 / deadzone=21,11 / fast_pskip=0 / chroma_qp_offset=-2 / threads=6 / lookahead_threads=1 / sliced_threads=0 / nr=0 / decimate=1 / interlaced=0 / bluray_compat=0 / constrained_intra=0 / bframes=3 / b_pyramid=2 / b_adapt=2 / b_bias=0 / direct=3 / weightb=1 / open_gop=0 / weightp=2 / keyint=250 / keyint_min=23 / scenecut=40 / intra_refresh=0 / rc_lookahead=50 / rc=2pass / mbtree=1 / bitrate=9241 / ratetol=1.0 / qcomp=0.60 / qpmin=0 / qpmax=69 / qpstep=4 / cplxblur=20.0 / qblur=0.5 / ip_ratio=1.40 / aq=1:1.00
    25. Language                                 : English
    26. Default                                  : No
    27. Forced                                   : No

    28. Audio
    29. ID                                       : 2
    30. Format                                   : DTS
    31. Format/Info                              : Digital Theater Systems
    32. Codec ID                                 : A_DTS
    33. Duration                                 : 2 h 5 min
    34. Bit rate mode                            : Constant
    35. Bit rate                                 : 768 kb/s
    36. Channel(s)                               : 6 channels
    37. Channel layout                           : C L R Ls Rs LFE
    38. Sampling rate                            : 48.0 kHz
    39. Frame rate                               : 93.750 FPS (512 SPF)
    40. Bit depth                                : 24 bits
    41. Compression mode                         : Lossy
    42. Stream size                              : 690 MiB (8%)
    43. Language                                 : Finnish
    44. Default                                  : Yes
    45. Forced                                   : No

    46. Text #1
    47. ID                                       : 3
    48. Format                                   : UTF-8
    49. Codec ID                                 : S_TEXT/UTF8
    50. Codec ID/Info                            : UTF-8 Plain Text
    51. Language                                 : English
    52. Default                                  : Yes
    53. Forced                                   : No

    54. Text #2
    55. ID                                       : 4
    56. Format                                   : UTF-8
    57. Codec ID                                 : S_TEXT/UTF8
    58. Codec ID/Info                            : UTF-8 Plain Text
    59. Language                                 : Finnish
    60. Default                                  : No
    61. Forced                                   : No

    62. Text #3
    63. ID                                       : 5
    64. Format                                   : UTF-8
    65. Codec ID                                 : S_TEXT/UTF8
    66. Codec ID/Info                            : UTF-8 Plain Text
    67. Language                                 : Swedish
    68. Default                                  : No
    69. Forced                                   : No

    70. Text #4
    71. ID                                       : 6
    72. Format                                   : UTF-8
    73. Codec ID                                 : S_TEXT/UTF8
    74. Codec ID/Info                            : UTF-8 Plain Text
    75. Language                                 : Norwegian
    76. Default                                  : No
    77. Forced                                   : No

    78. Text #5
    79. ID                                       : 7
    80. Format                                   : UTF-8
    81. Codec ID                                 : S_TEXT/UTF8
    82. Codec ID/Info                            : UTF-8 Plain Text
    83. Language                                 : Danish
    84. Default                                  : No
    85. Forced                                   : No
    复制代码

    清洗 Purge.2012.1080p.BluRay.x264-MCHD 8.74GB-2.png
    清洗 Purge.2012.1080p.BluRay.x264-MCHD 8.74GB-3.png
    清洗 Purge.2012.1080p.BluRay.x264-MCHD 8.74GB-4.png
    本帖隐藏的内容需要VIP会员才可浏览,您需要升级才可浏览,点击这里升级VIP





    回复

    使用道具 举报

    该用户从未签到

    0

    主题

    1万

    帖子

    1万

    积分

    论坛元老

    Rank: 8Rank: 8

    积分
    16777
    发表于 2021-6-9 22:48:48 | 显示全部楼层
    回复 支持 反对

    使用道具 举报

    该用户从未签到

    0

    主题

    3845

    帖子

    2334

    积分

    金牌会员

    Rank: 6Rank: 6

    积分
    2334
    发表于 2021-6-10 01:05:02 | 显示全部楼层
    感谢楼主的无私分享!要想蓝光高清电影网好 就靠你我他
    回复 支持 反对

    使用道具 举报

  • TA的每日心情
    开心
    13 小时前
  • 签到天数: 122 天

    [LV.7]常住居民III

    1

    主题

    421

    帖子

    1448

    积分

    金牌会员

    Rank: 6Rank: 6

    积分
    1448
    发表于 2021-6-10 01:05:12 | 显示全部楼层
    回复 支持 反对

    使用道具 举报

    该用户从未签到

    0

    主题

    3119

    帖子

    2405

    积分

    金牌会员

    Rank: 6Rank: 6

    积分
    2405
    发表于 2021-6-10 01:05:13 | 显示全部楼层
    回复 支持 反对

    使用道具 举报

    该用户从未签到

    0

    主题

    1万

    帖子

    1万

    积分

    论坛元老

    Rank: 8Rank: 8

    积分
    16777
    发表于 2021-6-10 01:05:13 | 显示全部楼层
    回复 支持 反对

    使用道具 举报

    该用户从未签到

    0

    主题

    1万

    帖子

    1万

    积分

    论坛元老

    Rank: 8Rank: 8

    积分
    15691
    发表于 2021-6-10 05:18:56 | 显示全部楼层
    这个帖子不回对不起自己!我想我是一天也不能离开蓝光电影网
    回复 支持 反对

    使用道具 举报

    该用户从未签到

    0

    主题

    1169

    帖子

    837

    积分

    高级会员

    Rank: 4

    积分
    837
    发表于 2021-6-10 08:16:11 | 显示全部楼层

    是个好电影!必须要看的!多谢分享!
    回复 支持 反对

    使用道具 举报

    该用户从未签到

    0

    主题

    2万

    帖子

    2万

    积分

    论坛元老

    Rank: 8Rank: 8

    积分
    25556
    发表于 2021-6-10 08:16:54 | 显示全部楼层
    楼主太厉害了!楼主,电影应该很好看我觉得蓝光电影下载真是个好地方!
    回复 支持 反对

    使用道具 举报

    该用户从未签到

    0

    主题

    1002

    帖子

    854

    积分

    高级会员

    Rank: 4

    积分
    854
    发表于 2021-6-10 09:23:13 | 显示全部楼层
    回复 支持 反对

    使用道具 举报

    懒得打字嘛,点击右侧快捷回复 【右侧内容,后台自定义】
    您需要登录后才可以回帖 登录 | 立即注册

    本版积分规则

    郑重声明,本站所有作品片源来自互联网公开渠道,均为网友上传交流学习,影视版权均归原电影公司所有,如有侵犯版权,请与 2322694662@qq.com 联系,我们将立即删除。

    小黑屋|手机版|Archiver|百度统计|投诉|蓝光电影下载

    GMT+8, 2021-6-22 15:01 , Processed in 0.028464 second(s), 26 queries , Gzip On, MemCached On.

    Powered by Discuz! X3.4

    © 2001-2013 Comsenz Inc.

    快速回复 返回顶部 返回列表