快捷导航
查看: 529|回复: 17

[爱情] 我的爱我的新娘 My.Love.My.Bride.2014.KOREAN.1080p.BluRay.x264.DTS-WiKi 8.95GB

[复制链接]
  • TA的每日心情
    无聊
    3 天前
  • 签到天数: 61 天

    [LV.6]常住居民II

    1623

    主题

    1684

    帖子

    3125

    积分

    发布组

    积分
    3125
    发表于 2021-6-9 22:53:47 | 显示全部楼层 |阅读模式
    1. 帖子完整标题:我的爱我的新娘 My.Love.My.Bride.2014.KOREAN.1080p.BluRay.x264.DTS-WiKi 8.95GB
    复制代码
    我的爱我的新娘 My.Love.My.Bride.2014.KOREAN.1080p.BluRay.x264.DTS-WiKi 8.95GB-1.png


    译  名 我的爱我的新娘/My Love My Bride/吾爱吾妻/我的爱,我的新娘/我的野蛮娇妻(台)
    片  名 ?? ?? ?? ??
    年  代 2014
    产  地 韩国
    类  别 喜剧 / 爱情
    语  言 韩语
    上映日期 2014-10-08(韩国)
    IMDb评分  6.4/10 from 500 users
    IMDb链接  https://www.imdb.com/title/tt4038966/
    豆瓣评分 6.7/10 from 4222 users
    豆瓣链接 https://movie.douban.com/subject/25827270/
    片  长 111分钟
    导  演 林赞相 Chan-sang Lim
    编  剧 金智慧 Ji-hye Kim / 李明世 Myung-se Lee
    主  演 曹政奭 Jeong-seok Cho
           申敏儿 Sin Min-ah
           尹晶喜 Yoon Jung Hee
           黄贞敏 Jeong-min Hwang
           全茂松 Mu-song Jeon
           罗美兰 Mi-ran Ra
           徐康俊 Kang-joon Seo
           吴超熙 Cho-hee Oh
           高圭弼 Ko Kyu-pil
           李圭福 Kyoo-bok Lee
           孙炳旭 Son Byeong-wook
           金根英 Geun-Young Kim
           安秀浩 Soo-ho Ahn
           金善荷 Kim Seon-ha
           李尚熙 Sang-hee Lee
           裴晟祐 Sung-Woo Bae
           徐信爱 Shin-ae Seo
           姜恩雅 Euna Kang

    标  签 韩国 | 爱情 | 喜剧 | 婚姻 | 2014 | 温情 | 家庭 | 生活

    简  介

      英民(曹政爽 饰)和美英(申敏儿 饰)之间的恋情是那种一见钟情的恋情,从第一次见面开始,两人就已经深深的爱上了彼此,将对方视为自己命中注定的存在。就这样,俊男和靓女之间,展开了为期四年的甜蜜恋爱,随着了解的加深,两人更加坚信,他们的选择是正确的。
      
      四年后,美英披上了纯白的婚纱,成为了英民的妻子,然而,剧情就此却急转直下。婚后的甜蜜生活只维持了极为短暂的一段时光,很快,英民和美英就都发现,对方的身上展现出了一些他们见所未见的特质。美英喋喋不休的唠叨简直要让英民的耳朵都起了茧子,而英民对于街头性感美女的火热视线令打翻了美英心中的醋坛子,照这样发展下去,这段婚姻总有一天会濒临破碎的边缘。

    获奖情况

      第35届韩国电影青龙奖 ?(2014)
      最佳女配角(提名) 罗美兰
    1. Video
    2. ID                                       : 1
    3. Format                                   : AVC
    4. Format/Info                              : Advanced Video Codec
    5. Format profile                           : High@L4
    6. Format settings                          : CABAC / 5 Ref Frames
    7. Format settings, CABAC                   : Yes
    8. Format settings, ReFrames                : 5 frames
    9. Codec ID                                 : V_MPEG4/ISO/AVC
    10. Duration                                 : 1 h 51 min
    11. Bit rate                                 : 10.0 Mb/s
    12. Width                                    : 1 920 pixels
    13. Height                                   : 816 pixels
    14. Display aspect ratio                     : 2.35:1
    15. Frame rate mode                          : Constant
    16. Frame rate                               : 23.976 (24000/1001/189150) FPS
    17. Color space                              : YUV
    18. Chroma subsampling                       : 4:2:0
    19. Bit depth                                : 8 bits
    20. Scan type                                : Progressive
    21. Bits/(Pixel*Frame)                       : 0.267
    22. Stream size                              : 7.78 GiB (87%)
    23. Writing library                          : x264 core 129 r2245+704+36 8e61944 tMod+MixAQ [High@L4:2:0 X86_64]
    24. Encoding settings                        : cabac=1 / ref=5 / deblock=1:-3:-3 / analyse=0x3:0x133 / me=umh / subme=11 / psy=1 / fade_compensate=0.00 / psy_rd=1.05:0.10 / mixed_ref=1 / me_range=64 / chroma_me=1 / trellis=2 / 8x8dct=1 / cqm=0 / deadzone=21,11 / fast_pskip=0 / chroma_qp_offset=-3 / threads=18 / lookahead_threads=3 / sliced_threads=0 / nr=0 / decimate=0 / interlaced=0 / bluray_compat=0 / constrained_intra=0 / fgo=0 / bframes=10 / b_pyramid=2 / b_adapt=2 / b_bias=0 / direct=3 / weightb=1 / open_gop=0 / weightp=2 / keyint=250 / keyint_min=23 / scenecut=40 / intra_refresh=0 / rc_lookahead=80 / rc=2pass / mbtree=1 / bitrate=10024 / ratetol=1.0 / qcomp=0.70 / qpmin=0 / qpmax=69 / qpstep=4 / cplxblur=20.0 / qblur=0.5 / ip_ratio=1.40 / aq=3 / aq-strength=0.85 / aq-sensitivity=10.00 / aq-ifactor=1.00 / aq-pfactor=1.00 / aq-bfactor=1.00 / aq2=0
    25. Language                                 : Korean
    26. Default                                  : Yes
    27. Forced                                   : No
    28. Color range                              : Limited
    29. Matrix coefficients                      : BT.709

    30. Audio
    31. ID                                       : 2
    32. Format                                   : DTS
    33. Format/Info                              : Digital Theater Systems
    34. Codec ID                                 : A_DTS
    35. Duration                                 : 1 h 51 min
    36. Bit rate mode                            : Constant
    37. Bit rate                                 : 1 509 kb/s
    38. Channel(s)                               : 6 channels
    39. Channel layout                           : C L R Ls Rs LFE
    40. Sampling rate                            : 48.0 kHz
    41. Frame rate                               : 93.750 FPS (512 SPF)
    42. Bit depth                                : 16 bits
    43. Compression mode                         : Lossy
    44. Stream size                              : 1.17 GiB (13%)
    45. Language                                 : Korean
    46. Default                                  : Yes
    47. Forced                                   : No

    48. Text #1
    49. ID                                       : 3
    50. Format                                   : UTF-8
    51. Codec ID                                 : S_TEXT/UTF8
    52. Codec ID/Info                            : UTF-8 Plain Text
    53. Duration                                 : 1 h 47 min
    54. Bit rate                                 : 54 b/s
    55. Count of elements                        : 1383
    56. Stream size                              : 42.9 KiB (0%)
    57. Language                                 : English
    58. Default                                  : Yes
    59. Forced                                   : Yes

    60. Text #2
    61. ID                                       : 4
    62. Format                                   : UTF-8
    63. Codec ID                                 : S_TEXT/UTF8
    64. Codec ID/Info                            : UTF-8 Plain Text
    65. Duration                                 : 1 h 46 min
    66. Bit rate                                 : 48 b/s
    67. Count of elements                        : 1420
    68. Stream size                              : 37.8 KiB (0%)
    69. Title                                    : Simplified
    70. Language                                 : Chinese
    71. Default                                  : No
    72. Forced                                   : No

    73. Text #3
    74. ID                                       : 5
    75. Format                                   : UTF-8
    76. Codec ID                                 : S_TEXT/UTF8
    77. Codec ID/Info                            : UTF-8 Plain Text
    78. Duration                                 : 1 h 46 min
    79. Bit rate                                 : 48 b/s
    80. Count of elements                        : 1420
    81. Stream size                              : 37.8 KiB (0%)
    82. Title                                    : Traditional
    83. Language                                 : Chinese
    84. Default                                  : No
    85. Forced                                   : No

    86. Menu
    87. 00:00:00.000                             : en:00:00:00.000
    88. 00:05:51.476                             : en:00:05:51.476
    89. 00:14:09.181                             : en:00:14:09.181
    90. 00:23:06.093                             : en:00:23:06.093
    91. 00:25:26.441                             : en:00:25:26.441
    92. 00:36:38.529                             : en:00:36:38.529
    93. 00:40:21.293                             : en:00:40:21.293
    94. 00:46:04.011                             : en:00:46:04.011
    95. 00:51:59.116                             : en:00:51:59.116
    96. 01:00:43.056                             : en:01:00:43.056
    97. 01:10:11.749                             : en:01:10:11.749
    98. 01:15:58.845                             : en:01:15:58.845
    99. 01:20:37.123                             : en:01:20:37.123
    100. 01:29:55.056                             : en:01:29:55.056
    101. 01:40:57.176                             : en:01:40:57.176
    102. 01:46:21.500                             : en:01:46:21.500
    复制代码

    我的爱我的新娘 My.Love.My.Bride.2014.KOREAN.1080p.BluRay.x264.DTS-WiKi 8.95GB-2.png
    本帖隐藏的内容需要VIP会员才可浏览,您需要升级才可浏览,点击这里升级VIP





    回复

    使用道具 举报

    该用户从未签到

    0

    主题

    1万

    帖子

    1万

    积分

    论坛元老

    Rank: 8Rank: 8

    积分
    16777
    发表于 2021-6-9 22:55:03 | 显示全部楼层
    感谢楼主的无私分享!要想蓝光高清电影网好 就靠你我他
    回复 支持 反对

    使用道具 举报

    该用户从未签到

    0

    主题

    1169

    帖子

    837

    积分

    高级会员

    Rank: 4

    积分
    837
    发表于 2021-6-9 23:46:04 | 显示全部楼层

    是个好电影!必须要看的!多谢分享!
    回复 支持 反对

    使用道具 举报

    该用户从未签到

    0

    主题

    529

    帖子

    188

    积分

    注册会员

    Rank: 2

    积分
    188
    发表于 2021-6-9 23:59:31 | 显示全部楼层
    回复 支持 反对

    使用道具 举报

  • TA的每日心情
    开心
    15 小时前
  • 签到天数: 122 天

    [LV.7]常住居民III

    1

    主题

    421

    帖子

    1448

    积分

    金牌会员

    Rank: 6Rank: 6

    积分
    1448
    发表于 2021-6-10 01:03:39 | 显示全部楼层
    回复 支持 反对

    使用道具 举报

    该用户从未签到

    0

    主题

    4202

    帖子

    3563

    积分

    论坛元老

    Rank: 8Rank: 8

    积分
    3563
    发表于 2021-6-10 01:03:39 | 显示全部楼层
    回复 支持 反对

    使用道具 举报

    该用户从未签到

    0

    主题

    777

    帖子

    465

    积分

    中级会员

    Rank: 3Rank: 3

    积分
    465
    发表于 2021-6-10 01:03:39 | 显示全部楼层
    回复 支持 反对

    使用道具 举报

    该用户从未签到

    0

    主题

    1028

    帖子

    737

    积分

    高级会员

    Rank: 4

    积分
    737
    发表于 2021-6-10 01:40:48 | 显示全部楼层
    回复 支持 反对

    使用道具 举报

    该用户从未签到

    0

    主题

    1万

    帖子

    1万

    积分

    论坛元老

    Rank: 8Rank: 8

    积分
    16777
    发表于 2021-6-10 04:31:24 | 显示全部楼层
    回复 支持 反对

    使用道具 举报

    该用户从未签到

    0

    主题

    1844

    帖子

    1590

    积分

    金牌会员

    Rank: 6Rank: 6

    积分
    1590
    发表于 2021-6-10 13:05:26 | 显示全部楼层
    回复 支持 反对

    使用道具 举报

    懒得打字嘛,点击右侧快捷回复 【右侧内容,后台自定义】
    您需要登录后才可以回帖 登录 | 立即注册

    本版积分规则

    郑重声明,本站所有作品片源来自互联网公开渠道,均为网友上传交流学习,影视版权均归原电影公司所有,如有侵犯版权,请与 2322694662@qq.com 联系,我们将立即删除。

    小黑屋|手机版|Archiver|百度统计|投诉|蓝光电影下载

    GMT+8, 2021-6-22 16:10 , Processed in 0.054984 second(s), 28 queries , Gzip On, MemCached On.

    Powered by Discuz! X3.4

    © 2001-2013 Comsenz Inc.

    快速回复 返回顶部 返回列表