快捷导航
查看: 555|回复: 18

[悬疑] 四非 Guilty.2015.CHINESE.1080p.BluRay.x264-WiKi 7.95GB

[复制链接]
  • TA的每日心情
    擦汗
    3 天前
  • 签到天数: 69 天

    [LV.6]常住居民II

    1529

    主题

    1600

    帖子

    3323

    积分

    发布组

    积分
    3323
    发表于 2021-6-9 22:55:41 | 显示全部楼层 |阅读模式
    1. 帖子完整标题:四非 Guilty.2015.CHINESE.1080p.BluRay.x264-WiKi 7.95GB
    复制代码



    译  名 Guilty
    片  名 四非
    年  代 2015
    产  地 中国香港
    类  别 悬疑 / 惊悚
    语  言 粤语
    上映日期 2015-03-19(中国香港)
    IMDb评分  5.7/10 from 99 users
    IMDb链接  https://www.imdb.com/title/tt3719416/
    豆瓣评分 4.8/10 from 1290 users
    豆瓣链接 https://movie.douban.com/subject/25767564/
    片  长 103分钟
    导  演 黄柏基 Jill Wong
    编  剧 陈鹏振 Pang-chun Chan / 鲜光剑 Guangjian Xian
    主  演 周柏豪  Pakho Chau
           李悦彤 Liddy Li
           廖启智 Kai Chi Liu
           艾威 Wei Ai
           明婧 Jing Ming

    标  签 香港 | 悬疑 | 周柏豪 | 香港电影 | 2015 | 犯罪 | 剧情 | 李悦彤

    简  介

      杰(周柏豪 饰)是一位技艺精湛的冷血杀手,只要成为了他的目标,那么下场就只有死路一条。杰的脸上长了一个肿瘤,样貌因此格外丑陋,但凡见过他真面目的人无不惊出一身冷汗,只想着逃跑。
      
      等待任务,接受任务,完成任务,杰每天都过着如此的生活,直到某一日,一位名叫婷婷(李悦彤 饰)的援交少女出现在了杰的生命里,婷婷的存在让杰感到内心深处一阵久违的悸动,他甚至为了婷婷放弃了杀手这一职业,和婷婷同进同出,形如父女。婷婷并不惧怕杰的面容,恰恰相反,她的一举一动之中都透露着挑逗之意,这令压抑着内心感情的杰十分痛苦。有一天,婷婷遭到绑架身陷险境,杰震怒了。
    1. Video
    2. ID                                       : 1
    3. Format                                   : AVC
    4. Format/Info                              : Advanced Video Codec
    5. Format profile                           : High@L4
    6. Format settings                          : CABAC / 5 Ref Frames
    7. Format settings, CABAC                   : Yes
    8. Format settings, ReFrames                : 5 frames
    9. Codec ID                                 : V_MPEG4/ISO/AVC
    10. Duration                                 : 1 h 42 min
    11. Bit rate                                 : 10.5 Mb/s
    12. Width                                    : 1 920 pixels
    13. Height                                   : 804 pixels
    14. Display aspect ratio                     : 2.40:1
    15. Frame rate mode                          : Constant
    16. Frame rate                               : 24.000 FPS
    17. Color space                              : YUV
    18. Chroma subsampling                       : 4:2:0
    19. Bit depth                                : 8 bits
    20. Scan type                                : Progressive
    21. Bits/(Pixel*Frame)                       : 0.283
    22. Stream size                              : 7.49 GiB (94%)
    23. Writing library                          : x264 core 129 r2245 bc13772
    24. Encoding settings                        : cabac=1 / ref=5 / deblock=1:-3:-3 / analyse=0x3:0x133 / me=umh / subme=11 / psy=1 / psy_rd=1.05:0.10 / mixed_ref=1 / me_range=64 / chroma_me=1 / trellis=2 / 8x8dct=1 / cqm=0 / deadzone=21,11 / fast_pskip=0 / chroma_qp_offset=-3 / threads=12 / lookahead_threads=2 / sliced_threads=0 / nr=0 / decimate=1 / interlaced=0 / bluray_compat=0 / constrained_intra=0 / bframes=8 / b_pyramid=2 / b_adapt=2 / b_bias=0 / direct=3 / weightb=1 / open_gop=0 / weightp=2 / keyint=250 / keyint_min=24 / scenecut=40 / intra_refresh=0 / rc_lookahead=60 / rc=2pass / mbtree=1 / bitrate=10474 / ratetol=1.0 / qcomp=0.60 / qpmin=0 / qpmax=69 / qpstep=4 / cplxblur=20.0 / qblur=0.5 / vbv_maxrate=40000 / vbv_bufsize=30000 / nal_hrd=none / ip_ratio=1.40 / aq=1:0.80
    25. Language                                 : English
    26. Default                                  : Yes
    27. Forced                                   : No

    28. Audio
    29. ID                                       : 2
    30. Format                                   : AC-3
    31. Format/Info                              : Audio Coding 3
    32. Commercial name                          : Dolby Digital
    33. Codec ID                                 : A_AC3
    34. Duration                                 : 1 h 42 min
    35. Bit rate mode                            : Constant
    36. Bit rate                                 : 640 kb/s
    37. Channel(s)                               : 6 channels
    38. Channel layout                           : L R C LFE Ls Rs
    39. Sampling rate                            : 48.0 kHz
    40. Frame rate                               : 31.250 FPS (1536 SPF)
    41. Bit depth                                : 16 bits
    42. Compression mode                         : Lossy
    43. Stream size                              : 469 MiB (6%)
    44. Language                                 : Chinese
    45. Service kind                             : Complete Main
    46. Default                                  : Yes
    47. Forced                                   : No

    48. Text
    49. ID                                       : 3
    50. Format                                   : UTF-8
    51. Codec ID                                 : S_TEXT/UTF8
    52. Codec ID/Info                            : UTF-8 Plain Text
    53. Duration                                 : 1 h 38 min
    54. Bit rate                                 : 15 b/s
    55. Count of elements                        : 398
    56. Stream size                              : 11.0 KiB (0%)
    57. Language                                 : English
    58. Default                                  : Yes
    59. Forced                                   : Yes
    复制代码




    本帖隐藏的内容需要VIP会员才可浏览,您需要升级才可浏览,点击这里升级VIP





    四非 Guilty.2015.CHINESE.1080p.BluRay.x264-WiKi 7.95GB-1.png
    四非 Guilty.2015.CHINESE.1080p.BluRay.x264-WiKi 7.95GB-2.png
    四非 Guilty.2015.CHINESE.1080p.BluRay.x264-WiKi 7.95GB-3.png
    回复

    使用道具 举报

  • TA的每日心情
    开心
    2016-6-1 14:06
  • 签到天数: 1 天

    [LV.1]初来乍到

    0

    主题

    962

    帖子

    696

    积分

    高级会员

    Rank: 4

    积分
    696
    发表于 2021-6-10 01:02:32 | 显示全部楼层
    回复 支持 反对

    使用道具 举报

  • TA的每日心情
    开心
    14 小时前
  • 签到天数: 122 天

    [LV.7]常住居民III

    1

    主题

    421

    帖子

    1448

    积分

    金牌会员

    Rank: 6Rank: 6

    积分
    1448
    发表于 2021-6-10 01:03:15 | 显示全部楼层
    回复 支持 反对

    使用道具 举报

    该用户从未签到

    0

    主题

    7680

    帖子

    7078

    积分

    论坛元老

    Rank: 8Rank: 8

    积分
    7078
    发表于 2021-6-10 01:03:16 | 显示全部楼层
    感谢楼主的无私分享!要想蓝光高清电影网好 就靠你我他
    回复 支持 反对

    使用道具 举报

    该用户从未签到

    0

    主题

    1028

    帖子

    737

    积分

    高级会员

    Rank: 4

    积分
    737
    发表于 2021-6-10 01:03:16 | 显示全部楼层

    非常精彩的电影,下来收藏,感谢楼主
    回复 支持 反对

    使用道具 举报

    该用户从未签到

    0

    主题

    1万

    帖子

    1万

    积分

    论坛元老

    Rank: 8Rank: 8

    积分
    15691
    发表于 2021-6-10 01:42:06 | 显示全部楼层
    回复 支持 反对

    使用道具 举报

    该用户从未签到

    0

    主题

    1万

    帖子

    1万

    积分

    论坛元老

    Rank: 8Rank: 8

    积分
    15691
    发表于 2021-6-10 01:56:24 | 显示全部楼层

    是个好电影!必须要看的!多谢分享!
    回复 支持 反对

    使用道具 举报

    该用户从未签到

    0

    主题

    443

    帖子

    311

    积分

    中级会员

    Rank: 3Rank: 3

    积分
    311
    发表于 2021-6-10 03:47:46 | 显示全部楼层
    回复 支持 反对

    使用道具 举报

    该用户从未签到

    0

    主题

    2万

    帖子

    2万

    积分

    论坛元老

    Rank: 8Rank: 8

    积分
    25556
    发表于 2021-6-10 05:17:50 | 显示全部楼层
    回复 支持 反对

    使用道具 举报

    该用户从未签到

    0

    主题

    1万

    帖子

    1万

    积分

    论坛元老

    Rank: 8Rank: 8

    积分
    16777
    发表于 2021-6-10 08:03:50 | 显示全部楼层
    回复 支持 反对

    使用道具 举报

    懒得打字嘛,点击右侧快捷回复 【右侧内容,后台自定义】
    您需要登录后才可以回帖 登录 | 立即注册

    本版积分规则

    郑重声明,本站所有作品片源来自互联网公开渠道,均为网友上传交流学习,影视版权均归原电影公司所有,如有侵犯版权,请与 2322694662@qq.com 联系,我们将立即删除。

    小黑屋|手机版|Archiver|百度统计|投诉|蓝光电影下载

    GMT+8, 2021-6-22 15:04 , Processed in 0.057762 second(s), 28 queries , Gzip On, MemCached On.

    Powered by Discuz! X3.4

    © 2001-2013 Comsenz Inc.

    快速回复 返回顶部 返回列表