快捷导航
查看: 61|回复: 13

[剧情] 空手道 The.Empty.Hands.2017.CHINESE.1080p.BluRay.x264-WiKi 6.56GB

[复制链接]
  • TA的每日心情

    前天 21:35
  • 签到天数: 89 天

    [LV.6]常住居民II

    1929

    主题

    2020

    帖子

    4183

    积分

    发布组

    积分
    4183
    发表于 2021-7-6 22:07:26 | 显示全部楼层 |阅读模式
    1. 帖子完整标题:空手道 The.Empty.Hands.2017.CHINESE.1080p.BluRay.x264-WiKi 6.56GB
    复制代码
    空手道 The.Empty.Hands.2017.CHINESE.1080p.BluRay.x264-WiKi 6.56GB-1.png


    译  名 The Empty Hands
    片  名 空手道
    年  代 2017
    产  地 中国香港
    类  别 剧情 / 运动
    语  言 粤语
    上映日期 2017-11-01(中国香港亚洲电影节)
    IMDb评分  6/10 from 464 users
    IMDb链接  https://www.imdb.com/title/tt7599050/
    豆瓣评分 6.1/10 from 2803 users
    豆瓣链接 https://movie.douban.com/subject/27006898/
    片  长 87分钟
    编  剧 李敏 Erica Lee
    主  演 邓丽欣 Stephy Tang
           仓田保昭 Yasuaki Kurata
           欧锦棠 Stephen Au
           陈静 Dada Chan
           柳俊江 Ryan Lau
           卢觅雪 Michelle Lo
           周志辉 Chi-Fai Chow
           司徒慧焯 Roy Szeto
           陈淑庄 Tanya Chan
           向柏荣 Borong Xiang
           姜伟忠 Weizhong Jiang
           梁柏坚 Patrick Leung
           杨柳青 Wiyona Yeung
           何慈茵 Charlene Houghton
           曾淑雅 Jumbo Tsang
           蔡嘉燕 Mon Choi
           陈钰芸 Juju Chan
           刘皓岚 Leander Lau
           简志德 Zhide Jian
           沙马信 Maxin Sha
           余达志 Tat-chi Yu
           黄定谦 Himmy Wong
           禤嘉仪 Ivy Huen

    标  签 香港 | 2017 | 剧情 | 动作 | 空手道 | 励志 | 成长 | 文艺

    简  介

      出身空手道世家的港日混血儿平川真理,因丧父、失恋而一蹶不振,在杜汶泽饰演的师傅地狱式训练和激励下越战越强,最大敌人原来是自己。本身是空手道高手的杜汶泽当上导演不再搞笑,化身监制、导演、编剧、主演、武术指导,执意拍摄武术搏击严肃题材,邀请自己师傅、空手道七段的仓田保昭和武术爱好者欧锦棠上场,拍出独有韵味。执导筒犹如拾起空手道袍,纯粹想挑战自己。

    获奖情况

      第37届香港电影金像奖 ?(2018)
      最佳女主角(提名) 邓丽欣
      最佳男配角(提名) 仓田保昭
      最佳摄影(提名) 谭运佳
      最佳美术指导(提名) 张蚊
      最佳原创电影音乐(提名) 李端娴
      新晋导演(提名) 杜汶泽
    1. Video
    2. ID                                       : 1
    3. Format                                   : AVC
    4. Format/Info                              : Advanced Video Codec
    5. Format profile                           : High@L4
    6. Format settings                          : CABAC / 5 Ref Frames
    7. Format settings, CABAC                   : Yes
    8. Format settings, ReFrames                : 5 frames
    9. Codec ID                                 : V_MPEG4/ISO/AVC
    10. Duration                                 : 1 h 27 min
    11. Bit rate                                 : 10.1 Mb/s
    12. Width                                    : 1 920 pixels
    13. Height                                   : 816 pixels
    14. Display aspect ratio                     : 2.35:1
    15. Frame rate mode                          : Constant
    16. Frame rate                               : 24.000 FPS
    17. Color space                              : YUV
    18. Chroma subsampling                       : 4:2:0
    19. Bit depth                                : 8 bits
    20. Scan type                                : Progressive
    21. Bits/(Pixel*Frame)                       : 0.269
    22. Stream size                              : 6.16 GiB (94%)
    23. Writing library                          : x264 core 129 r2245+704+36 8e61944 tMod+MixAQ [High@L4:2:0 X86_64]
    24. Encoding settings                        : cabac=1 / ref=5 / deblock=1:-3:-3 / analyse=0x3:0x133 / me=umh / subme=11 / psy=1 / fade_compensate=0.00 / psy_rd=1.05:0.10 / mixed_ref=1 / me_range=64 / chroma_me=1 / trellis=2 / 8x8dct=1 / cqm=0 / deadzone=21,11 / fast_pskip=0 / chroma_qp_offset=-3 / threads=18 / lookahead_threads=3 / sliced_threads=0 / nr=0 / decimate=0 / interlaced=0 / bluray_compat=0 / constrained_intra=0 / fgo=0 / bframes=10 / b_pyramid=2 / b_adapt=2 / b_bias=0 / direct=3 / weightb=1 / open_gop=0 / weightp=2 / keyint=250 / keyint_min=24 / scenecut=40 / intra_refresh=0 / rc=2pass / mbtree=0 / bitrate=10124 / ratetol=1.0 / qcomp=0.70 / qpmin=0 / qpmax=69 / qpstep=4 / cplxblur=20.0 / qblur=0.5 / ip_ratio=1.40 / pb_ratio=1.30 / aq=1 / aq-strength=0.90 / aq-sensitivity=10.00 / aq-ifactor=1.00 / aq-pfactor=1.00 / aq-bfactor=1.00 / aq2=0
    25. Language                                 : Chinese
    26. Default                                  : Yes
    27. Forced                                   : No
    28. Color range                              : Limited
    29. Matrix coefficients                      : BT.709

    30. Audio
    31. ID                                       : 2
    32. Format                                   : AC-3
    33. Format/Info                              : Audio Coding 3
    34. Codec ID                                 : A_AC3
    35. Duration                                 : 1 h 27 min
    36. Bit rate mode                            : Constant
    37. Bit rate                                 : 640 kb/s
    38. Channel(s)                               : 6 channels
    39. Channel positions                        : Front: L C R, Side: L R, LFE
    40. Sampling rate                            : 48.0 kHz
    41. Frame rate                               : 31.250 FPS (1536 SPF)
    42. Bit depth                                : 16 bits
    43. Compression mode                         : Lossy
    44. Stream size                              : 400 MiB (6%)
    45. Language                                 : Chinese
    46. Service kind                             : Complete Main
    47. Default                                  : Yes
    48. Forced                                   : No

    49. Text #1
    50. ID                                       : 3
    51. Format                                   : UTF-8
    52. Codec ID                                 : S_TEXT/UTF8
    53. Codec ID/Info                            : UTF-8 Plain Text
    54. Duration                                 : 1 h 15 min
    55. Bit rate                                 : 25 b/s
    56. Count of elements                        : 518
    57. Stream size                              : 14.3 KiB (0%)
    58. Title                                    : Simplified
    59. Language                                 : Chinese
    60. Default                                  : Yes
    61. Forced                                   : No

    62. Text #2
    63. ID                                       : 4
    64. Format                                   : UTF-8
    65. Codec ID                                 : S_TEXT/UTF8
    66. Codec ID/Info                            : UTF-8 Plain Text
    67. Duration                                 : 1 h 15 min
    68. Bit rate                                 : 25 b/s
    69. Count of elements                        : 518
    70. Stream size                              : 14.3 KiB (0%)
    71. Title                                    : Traditional
    72. Language                                 : Chinese
    73. Default                                  : No
    74. Forced                                   : No

    75. Menu
    76. 00:00:00.000                             : en:00:00:00.000
    77. 00:06:55.125                             : en:00:06:55.125
    78. 00:13:06.458                             : en:00:13:06.458
    79. 00:21:21.375                             : en:00:21:21.375
    80. 00:30:28.708                             : en:00:30:28.708
    81. 00:36:17.791                             : en:00:36:17.791
    82. 00:42:30.208                             : en:00:42:30.208
    83. 00:50:30.916                             : en:00:50:30.916
    84. 00:58:21.083                             : en:00:58:21.083
    85. 01:05:31.291                             : en:01:05:31.291
    86. 01:13:47.916                             : en:01:13:47.916
    87. 01:22:19.041                             : en:01:22:19.041
    复制代码

    空手道 The.Empty.Hands.2017.CHINESE.1080p.BluRay.x264-WiKi 6.56GB-2.png
    空手道 The.Empty.Hands.2017.CHINESE.1080p.BluRay.x264-WiKi 6.56GB-3.png
    空手道 The.Empty.Hands.2017.CHINESE.1080p.BluRay.x264-WiKi 6.56GB-4.png
    空手道 The.Empty.Hands.2017.CHINESE.1080p.BluRay.x264-WiKi 6.56GB-5.png
    空手道 The.Empty.Hands.2017.CHINESE.1080p.BluRay.x264-WiKi 6.56GB-6.png

    本帖隐藏的内容需要VIP会员才可浏览,您需要升级才可浏览,点击这里升级VIP




    回复

    使用道具 举报

    该用户从未签到

    0

    主题

    1267

    帖子

    808

    积分

    高级会员

    Rank: 4

    积分
    808
    发表于 2021-7-6 22:08:42 | 显示全部楼层
    回复 支持 反对

    使用道具 举报

    该用户从未签到

    0

    主题

    2万

    帖子

    1万

    积分

    论坛元老

    Rank: 8Rank: 8

    积分
    16777
    发表于 2021-7-6 22:18:29 | 显示全部楼层
    谢谢楼主资源

    点评

    QQ 155 307 5678 =出-售 桑 拿 女 按 摩 女 模 特 外 围女 资 料 良 家 学 生 妹 信息  发表于 2021-7-7 07:11
    回复 支持 反对

    使用道具 举报

    该用户从未签到

    0

    主题

    2万

    帖子

    1万

    积分

    论坛元老

    Rank: 8Rank: 8

    积分
    16777
    发表于 2021-7-6 23:53:54 | 显示全部楼层
    回复 支持 反对

    使用道具 举报

    该用户从未签到

    0

    主题

    1万

    帖子

    1万

    积分

    论坛元老

    Rank: 8Rank: 8

    积分
    16181
    发表于 2021-7-7 00:02:39 | 显示全部楼层
    回复 支持 反对

    使用道具 举报

    该用户从未签到

    0

    主题

    1万

    帖子

    1万

    积分

    论坛元老

    Rank: 8Rank: 8

    积分
    16181
    发表于 2021-7-7 03:19:22 | 显示全部楼层
    楼主太厉害了!楼主,电影应该很好看我觉得蓝光电影下载真是个好地方!
    回复 支持 反对

    使用道具 举报

    该用户从未签到

    0

    主题

    1026

    帖子

    610

    积分

    高级会员

    Rank: 4

    积分
    610
    发表于 2021-7-7 05:04:23 | 显示全部楼层
    这个帖子不回对不起自己!我想我是一天也不能离开蓝光电影网
    回复 支持 反对

    使用道具 举报

    该用户从未签到

    0

    主题

    4247

    帖子

    3565

    积分

    论坛元老

    Rank: 8Rank: 8

    积分
    3565
    发表于 2021-7-7 07:06:52 | 显示全部楼层
    回复 支持 反对

    使用道具 举报

    该用户从未签到

    0

    主题

    3312

    帖子

    2405

    积分

    金牌会员

    Rank: 6Rank: 6

    积分
    2405
    发表于 2021-7-7 07:54:20 | 显示全部楼层

    是个好电影!必须要看的!多谢分享!
    回复 支持 反对

    使用道具 举报

    该用户从未签到

    0

    主题

    829

    帖子

    465

    积分

    中级会员

    Rank: 3Rank: 3

    积分
    465
    发表于 2021-7-7 13:03:08 | 显示全部楼层
    回复 支持 反对

    使用道具 举报

    懒得打字嘛,点击右侧快捷回复 【右侧内容,后台自定义】
    您需要登录后才可以回帖 登录 | 立即注册

    本版积分规则

    郑重声明,本站所有作品片源来自互联网公开渠道,均为网友上传交流学习,影视版权均归原电影公司所有,如有侵犯版权,请与 2322694662@qq.com 联系,我们将立即删除。

    小黑屋|手机版|Archiver|百度统计|投诉|蓝光电影下载

    GMT+8, 2021-7-27 16:23 , Processed in 0.056005 second(s), 23 queries , Gzip On, MemCached On.

    Powered by Discuz! X3.4

    © 2001-2013 Comsenz Inc.

    快速回复 返回顶部 返回列表