快捷导航
查看: 33|回复: 12

[喜剧] 兄弟班 House.of.The.Rising.Sons.2018.CHINESE.1080p.BluRay.x264-WiKi 7.50GB

[复制链接]
  • TA的每日心情

    前天 21:35
  • 签到天数: 89 天

    [LV.6]常住居民II

    1929

    主题

    2020

    帖子

    4183

    积分

    发布组

    积分
    4183
    发表于 2021-7-18 16:02:39 | 显示全部楼层 |阅读模式
    1. 帖子完整标题:兄弟班 House.of.The.Rising.Sons.2018.CHINESE.1080p.BluRay.x264-WiKi 7.50GB
    复制代码
    兄弟班 House.of.The.Rising.Sons.2018.CHINESE.1080p.BluRay.x264-WiKi 7.50GB-1.png


    译  名 House of The Rising Sons
    片  名 兄弟班
    年  代 2018
    产  地 中国香港,中国大陆
    类  别 剧情 / 喜剧
    语  言 粤语,汉语普通话
    上映日期 2018-07-19(中国香港) / 2018-07-20(中国大陆)
    IMDb评分  5.7/10 from 51 users
    IMDb链接  https://www.imdb.com/title/tt8638638/
    豆瓣评分 5.8/10 from 1101 users
    豆瓣链接 https://movie.douban.com/subject/26988003/
    片  长 100分钟
    导  演 陈友 Anthony Chan
    编  剧 陈友 Anthony Chan / 彭美凤 Mei-Feng Peng / 周汶儒 Man Yu Chow / 召南 Siu Nam
    主  演 陈家乐 Carlos Chan
           于湉 Tan Yu
           王梓轩 Jonathan Wong Chee-hynn
           吴鹤谦 Hokhim Ng
           林耀声 Yiu-Sing Lam
           邓加乐 Eugene Tang
           任达华 Simon Yam
           金燕玲 Elaine Jin
           惠英红 Kara Wai Ying Hung
           廖启智 Kai Chi Liu
           谭咏麟 Alan Tam
           钟镇涛 Kenny Bee
           钱小豪 Siu-hou Chin
           陈友 Anthony Chan
           彭健新 Bennett Pang
           叶智强 Danny Yip

    标  签 香港 | 温拿乐队 | 传记 | 音乐 | 2018 | 友谊 | 励志 | 喜剧

    简  介

      这是一个对新鲜事物充满好奇的时代,和所有故事的开头一样,坏男孩变好的原因永远是女孩,为了喜欢的女孩,海边烧烤摊堂口老大阿力在母亲包租婆的支持下,带着他的兄弟阿健、阿强开始了自己的音乐之路,同街区的阿友、阿伦、阿B也被坑蒙拐骗拉进团队,他们在斗殴和训练中增长友谊,父母们的集体反对、路人、邻居们的嘲笑更是激起了他们的好胜心。
      
      通过不懈努力终于从Loosers变成了Wynners,穷小子终于变成大明星,父母似乎也能理解这一切,但成员知名程度不一,资源分配不公等问题成为兄弟友情的最大考验,Wynners能否经受考验,保住兄弟真情谊.....
    1. Video
    2. ID                                       : 1
    3. Format                                   : AVC
    4. Format/Info                              : Advanced Video Codec
    5. Format profile                           : High@L4
    6. Format settings                          : CABAC / 5 Ref Frames
    7. Format settings, CABAC                   : Yes
    8. Format settings, Reference frames        : 5 frames
    9. Codec ID                                 : V_MPEG4/ISO/AVC
    10. Duration                                 : 1 h 40 min
    11. Bit rate                                 : 10.1 Mb/s
    12. Width                                    : 1 920 pixels
    13. Height                                   : 800 pixels
    14. Display aspect ratio                     : 2.40:1
    15. Frame rate mode                          : Constant
    16. Frame rate                               : 24.000 FPS
    17. Color space                              : YUV
    18. Chroma subsampling                       : 4:2:0
    19. Bit depth                                : 8 bits
    20. Scan type                                : Progressive
    21. Bits/(Pixel*Frame)                       : 0.273
    22. Stream size                              : 7.05 GiB (94%)
    23. Writing library                          : x264 core 129 r2245 bc13772
    24. Encoding settings                        : cabac=1 / ref=5 / deblock=1:-3:-3 / analyse=0x3:0x133 / me=umh / subme=11 / psy=1 / psy_rd=1.00:0.00 / mixed_ref=1 / me_range=64 / chroma_me=1 / trellis=2 / 8x8dct=1 / cqm=0 / deadzone=21,11 / fast_pskip=0 / chroma_qp_offset=-2 / threads=12 / lookahead_threads=2 / sliced_threads=0 / nr=0 / decimate=1 / interlaced=0 / bluray_compat=0 / constrained_intra=0 / bframes=8 / b_pyramid=2 / b_adapt=2 / b_bias=0 / direct=3 / weightb=1 / open_gop=0 / weightp=2 / keyint=250 / keyint_min=24 / scenecut=40 / intra_refresh=0 / rc_lookahead=60 / rc=2pass / mbtree=0 / bitrate=10068 / ratetol=1.0 / qcomp=0.70 / qpmin=0 / qpmax=69 / qpstep=4 / cplxblur=20.0 / qblur=0.5 / vbv_maxrate=40000 / vbv_bufsize=30000 / nal_hrd=none / ip_ratio=1.40 / pb_ratio=1.30 / aq=1:0.60
    25. Language                                 : English
    26. Default                                  : Yes
    27. Forced                                   : No

    28. Audio
    29. ID                                       : 2
    30. Format                                   : AC-3
    31. Format/Info                              : Audio Coding 3
    32. Commercial name                          : Dolby Digital
    33. Codec ID                                 : A_AC3
    34. Duration                                 : 1 h 40 min
    35. Bit rate mode                            : Constant
    36. Bit rate                                 : 640 kb/s
    37. Channel(s)                               : 6 channels
    38. Channel layout                           : L R C LFE Ls Rs
    39. Sampling rate                            : 48.0 kHz
    40. Frame rate                               : 31.250 FPS (1536 SPF)
    41. Compression mode                         : Lossy
    42. Stream size                              : 459 MiB (6%)
    43. Title                                    : 粤语
    44. Language                                 : Chinese
    45. Service kind                             : Complete Main
    46. Default                                  : Yes
    47. Forced                                   : No

    48. Text #1
    49. ID                                       : 3
    50. Format                                   : UTF-8
    51. Codec ID                                 : S_TEXT/UTF8
    52. Codec ID/Info                            : UTF-8 Plain Text
    53. Duration                                 : 1 h 34 min
    54. Bit rate                                 : 32 b/s
    55. Count of elements                        : 1101
    56. Stream size                              : 22.3 KiB (0%)
    57. Language                                 : English
    58. Default                                  : Yes
    59. Forced                                   : Yes

    60. Text #2
    61. ID                                       : 4
    62. Format                                   : UTF-8
    63. Codec ID                                 : S_TEXT/UTF8
    64. Codec ID/Info                            : UTF-8 Plain Text
    65. Duration                                 : 1 h 34 min
    66. Bit rate                                 : 32 b/s
    67. Count of elements                        : 1105
    68. Stream size                              : 22.1 KiB (0%)
    69. Title                                    : 简体
    70. Language                                 : Chinese
    71. Default                                  : No
    72. Forced                                   : No

    73. Text #3
    74. ID                                       : 5
    75. Format                                   : UTF-8
    76. Codec ID                                 : S_TEXT/UTF8
    77. Codec ID/Info                            : UTF-8 Plain Text
    78. Duration                                 : 1 h 34 min
    79. Bit rate                                 : 32 b/s
    80. Count of elements                        : 1105
    81. Stream size                              : 22.1 KiB (0%)
    82. Title                                    : 繁体
    83. Language                                 : Chinese
    84. Default                                  : No
    85. Forced                                   : No
    复制代码

    兄弟班 House.of.The.Rising.Sons.2018.CHINESE.1080p.BluRay.x264-WiKi 7.50GB-2.png
    兄弟班 House.of.The.Rising.Sons.2018.CHINESE.1080p.BluRay.x264-WiKi 7.50GB-3.png
    兄弟班 House.of.The.Rising.Sons.2018.CHINESE.1080p.BluRay.x264-WiKi 7.50GB-4.png
    本帖隐藏的内容需要VIP会员才可浏览,您需要升级才可浏览,点击这里升级VIP





    回复

    使用道具 举报

    该用户从未签到

    0

    主题

    5428

    帖子

    3498

    积分

    论坛元老

    Rank: 8Rank: 8

    积分
    3498
    发表于 2021-7-18 16:03:56 | 显示全部楼层
    回复 支持 反对

    使用道具 举报

    该用户从未签到

    0

    主题

    1万

    帖子

    1万

    积分

    论坛元老

    Rank: 8Rank: 8

    积分
    16181
    发表于 2021-7-18 16:16:48 | 显示全部楼层
    回复 支持 反对

    使用道具 举报

    该用户从未签到

    0

    主题

    4082

    帖子

    2334

    积分

    金牌会员

    Rank: 6Rank: 6

    积分
    2334
    发表于 2021-7-18 16:58:44 | 显示全部楼层
    回复 支持 反对

    使用道具 举报

    该用户从未签到

    0

    主题

    4418

    帖子

    3563

    积分

    论坛元老

    Rank: 8Rank: 8

    积分
    3563
    发表于 2021-7-18 18:45:12 | 显示全部楼层
    感谢楼主的无私分享!要想蓝光高清电影网好 就靠你我他
    回复 支持 反对

    使用道具 举报

    该用户从未签到

    0

    主题

    3万

    帖子

    2万

    积分

    论坛元老

    Rank: 8Rank: 8

    积分
    26401
    发表于 2021-7-18 21:24:10 | 显示全部楼层

    是个好电影!必须要看的!多谢分享!
    回复 支持 反对

    使用道具 举报

    该用户从未签到

    0

    主题

    1056

    帖子

    657

    积分

    高级会员

    Rank: 4

    积分
    657
    发表于 2021-7-19 07:56:57 | 显示全部楼层

    非常精彩的电影,下来收藏,感谢楼主
    回复 支持 反对

    使用道具 举报

    该用户从未签到

    0

    主题

    677

    帖子

    10

    积分

    新手上路

    Rank: 1

    积分
    10
    发表于 7 天前 | 显示全部楼层
    这个帖子不回对不起自己!我想我是一天也不能离开蓝光电影网
    回复 支持 反对

    使用道具 举报

    该用户从未签到

    0

    主题

    516

    帖子

    291

    积分

    中级会员

    Rank: 3Rank: 3

    积分
    291
    发表于 5 天前 | 显示全部楼层
    回复 支持 反对

    使用道具 举报

    该用户从未签到

    0

    主题

    1万

    帖子

    1万

    积分

    论坛元老

    Rank: 8Rank: 8

    积分
    16181
    发表于 5 天前 | 显示全部楼层
    回复 支持 反对

    使用道具 举报

    懒得打字嘛,点击右侧快捷回复 【右侧内容,后台自定义】
    您需要登录后才可以回帖 登录 | 立即注册

    本版积分规则

    郑重声明,本站所有作品片源来自互联网公开渠道,均为网友上传交流学习,影视版权均归原电影公司所有,如有侵犯版权,请与 2322694662@qq.com 联系,我们将立即删除。

    小黑屋|手机版|Archiver|百度统计|投诉|蓝光电影下载

    GMT+8, 2021-7-27 17:48 , Processed in 0.061775 second(s), 26 queries , Gzip On, MemCached On.

    Powered by Discuz! X3.4

    © 2001-2013 Comsenz Inc.

    快速回复 返回顶部 返回列表