快捷导航
查看: 43|回复: 11

[动作] 哥斯拉:决战之都/GODZILLA 第二章 Godzilla.City.on.the.Edge.of.Battle.2018.JAPANESE.1080p.Bl

[复制链接]
  • TA的每日心情

    前天 21:35
  • 签到天数: 80 天

    [LV.6]常住居民II

    1967

    主题

    2047

    帖子

    3907

    积分

    发布组

    积分
    3907
    发表于 6 天前 | 显示全部楼层 |阅读模式
    1. 帖子完整标题:哥斯拉:决战之都/GODZILLA 第二章 Godzilla.City.on.the.Edge.of.Battle.2018.JAPANESE.1080p.BluRay.x264.DTS-WiKi 8.79GB
    复制代码
    哥斯拉:决战之都/GODZILLA 第二章 Godzilla.City.on.the.Edge.of.Battle.2018.JAPANESE.1080p.Bl-1.png


    译  名 哥斯拉:决战之都/GODZILLA 第二章/哥斯拉:决战机动增殖都市
    片  名 GODZILLA 決戦機動増殖都市
    年  代 2018
    产  地 日本
    类  别 动作 / 科幻 / 动画
    语  言 日语
    上映日期 2018-05-18(日本)
    IMDb评分  5.8/10 from 3992 users
    IMDb链接  https://www.imdb.com/title/tt8015080/
    豆瓣评分 6.7/10 from 5671 users
    豆瓣链接 https://movie.douban.com/subject/27126349/
    片  长 101分钟
    导  演 静野孔文 Kobun Shizuno / 濑下宽之 Hiroyuki Seshita
    编  剧 虚渊玄 Gen Urobuchi / 村井贞之 Sadayuki Murai
    主  演 宫野真守 Mamoru Miyano
           樱井孝宏 Takahiro Sakurai
           花泽香菜 Kana Hanazawa
           杉田智和 Tomokazu Sugita
           梶裕贵 Y?ki Kaji
           诹访部顺一 Junichi Suwabe
           三宅健太 Kenta Miyake
           堀内贤雄 Ken'y? Horiuchi
           中井和哉 Kazuya Nakai
           山路和弘 Kazuhiro Yamaji
           山本兼平 Kanehira Yamamoto
           上田丽奈 Reina Ueda
           小泽亚李 Ari Ozawa
           柳田淳一 Yanagita Junichi
           石谷春贵 Haruki Ishiya
           佐佐健太 Sasa Kenta
           洲崎绫 Aya Suzaki
           高桥伸也 Takahashi Shinya
           田岛章宽 Tajima Akihiro
           辻井健吾 Kengo Tsujii

    标  签 哥斯拉 | 动画 | 科幻 | 日本 | 日本动画 | 2018 | 剧场版 | 虚渊玄

    简  介


      影片为[哥斯拉:怪兽行星]续作。人类要从哥斯拉手中夺回地球的战斗仍在继续。而打败哥斯拉的关键却是某神秘机械武器,而该武器早在两万年前就已经丢失。
    1. Video
    2. ID                                       : 1
    3. Format                                   : AVC
    4. Format/Info                              : Advanced Video Codec
    5. Format profile                           : High@L4
    6. Format settings                          : CABAC / 4 Ref Frames
    7. Format settings, CABAC                   : Yes
    8. Format settings, ReFrames                : 4 frames
    9. Codec ID                                 : V_MPEG4/ISO/AVC
    10. Duration                                 : 1 h 40 min
    11. Bit rate                                 : 11.0 Mb/s
    12. Width                                    : 1 920 pixels
    13. Height                                   : 1 080 pixels
    14. Display aspect ratio                     : 16:9
    15. Frame rate mode                          : Constant
    16. Frame rate                               : 23.976 (24000/1001/189150) FPS
    17. Color space                              : YUV
    18. Chroma subsampling                       : 4:2:0
    19. Bit depth                                : 8 bits
    20. Scan type                                : Progressive
    21. Bits/(Pixel*Frame)                       : 0.221
    22. Stream size                              : 7.70 GiB (88%)
    23. Writing library                          : x264 core 130 r2273 b3065e6
    24. Encoding settings                        : cabac=1 / ref=4 / deblock=1:-1:-1 / analyse=0x3:0x113 / me=umh / subme=11 / psy=1 / psy_rd=1.00:0.00 / mixed_ref=1 / me_range=32 / chroma_me=1 / trellis=2 / 8x8dct=1 / cqm=0 / deadzone=21,11 / fast_pskip=0 / chroma_qp_offset=-4 / threads=12 / lookahead_threads=2 / sliced_threads=0 / nr=0 / decimate=0 / interlaced=0 / bluray_compat=0 / constrained_intra=0 / bframes=8 / b_pyramid=2 / b_adapt=2 / b_bias=0 / direct=3 / weightb=1 / open_gop=0 / weightp=2 / keyint=250 / keyint_min=23 / scenecut=40 / intra_refresh=0 / rc=2pass / mbtree=0 / bitrate=11000 / ratetol=1.0 / qcomp=0.60 / qpmin=0 / qpmax=69 / qpstep=4 / cplxblur=20.0 / qblur=0.5 / ip_ratio=1.40 / pb_ratio=1.30 / aq=1:0.95
    25. Language                                 : English
    26. Default                                  : Yes
    27. Forced                                   : No

    28. Audio
    29. ID                                       : 2
    30. Format                                   : DTS
    31. Format/Info                              : Digital Theater Systems
    32. Codec ID                                 : A_DTS
    33. Duration                                 : 1 h 40 min
    34. Bit rate mode                            : Constant
    35. Bit rate                                 : 1 509 kb/s
    36. Channel(s)                               : 6 channels
    37. Channel layout                           : C L R Ls Rs LFE
    38. Sampling rate                            : 48.0 kHz
    39. Frame rate                               : 93.750 FPS (512 SPF)
    40. Bit depth                                : 24 bits
    41. Compression mode                         : Lossy
    42. Stream size                              : 1.06 GiB (12%)
    43. Title                                    : 日语
    44. Language                                 : Japanese
    45. Default                                  : Yes
    46. Forced                                   : No

    47. Text
    48. ID                                       : 3
    49. Format                                   : UTF-8
    50. Codec ID                                 : S_TEXT/UTF8
    51. Codec ID/Info                            : UTF-8 Plain Text
    52. Duration                                 : 1 h 39 min
    53. Bit rate                                 : 68 b/s
    54. Count of elements                        : 1379
    55. Stream size                              : 50.3 KiB (0%)
    56. Language                                 : English
    57. Default                                  : Yes
    58. Forced                                   : Yes
    复制代码

    哥斯拉:决战之都/GODZILLA 第二章 Godzilla.City.on.the.Edge.of.Battle.2018.JAPANESE.1080p.Bl-3.png
    哥斯拉:决战之都/GODZILLA 第二章 Godzilla.City.on.the.Edge.of.Battle.2018.JAPANESE.1080p.Bl-4.png
    哥斯拉:决战之都/GODZILLA 第二章 Godzilla.City.on.the.Edge.of.Battle.2018.JAPANESE.1080p.Bl-5.png
    本帖隐藏的内容需要VIP会员才可浏览,您需要升级才可浏览,点击这里升级VIP





    回复

    使用道具 举报

    该用户从未签到

    0

    主题

    1027

    帖子

    610

    积分

    高级会员

    Rank: 4

    积分
    610
    发表于 6 天前 | 显示全部楼层
    楼主太厉害了!楼主,电影应该很好看我觉得蓝光电影下载真是个好地方!
    回复 支持 反对

    使用道具 举报

    该用户从未签到

    0

    主题

    1万

    帖子

    1万

    积分

    论坛元老

    Rank: 8Rank: 8

    积分
    16181
    发表于 6 天前 | 显示全部楼层
    回复 支持 反对

    使用道具 举报

  • TA的每日心情

    2020-12-3 18:08
  • 签到天数: 1 天

    [LV.1]初来乍到

    0

    主题

    413

    帖子

    24

    积分

    新手上路

    Rank: 1

    积分
    24
    发表于 6 天前 | 显示全部楼层
    提示: 作者被禁止或删除 内容自动屏蔽
    回复 支持 反对

    使用道具 举报

    该用户从未签到

    0

    主题

    3万

    帖子

    2万

    积分

    论坛元老

    Rank: 8Rank: 8

    积分
    26401
    发表于 6 天前 | 显示全部楼层
    回复 支持 反对

    使用道具 举报

    该用户从未签到

    0

    主题

    3万

    帖子

    2万

    积分

    论坛元老

    Rank: 8Rank: 8

    积分
    26401
    发表于 6 天前 | 显示全部楼层
    回复 支持 反对

    使用道具 举报

    该用户从未签到

    0

    主题

    2359

    帖子

    2046

    积分

    金牌会员

    Rank: 6Rank: 6

    积分
    2046
    发表于 5 天前 | 显示全部楼层

    是个好电影!必须要看的!多谢分享!
    回复 支持 反对

    使用道具 举报

    该用户从未签到

    0

    主题

    1716

    帖子

    1062

    积分

    金牌会员

    Rank: 6Rank: 6

    积分
    1062
    发表于 4 天前 | 显示全部楼层
    回复 支持 反对

    使用道具 举报

    该用户从未签到

    0

    主题

    4082

    帖子

    2334

    积分

    金牌会员

    Rank: 6Rank: 6

    积分
    2334
    发表于 3 天前 | 显示全部楼层
    回复 支持 反对

    使用道具 举报

    该用户从未签到

    0

    主题

    3万

    帖子

    2万

    积分

    论坛元老

    Rank: 8Rank: 8

    积分
    26401
    发表于 3 天前 | 显示全部楼层

    非常精彩的电影,下来收藏,感谢楼主
    回复 支持 反对

    使用道具 举报

    懒得打字嘛,点击右侧快捷回复 【右侧内容,后台自定义】
    您需要登录后才可以回帖 登录 | 立即注册

    本版积分规则

    郑重声明,本站所有作品片源来自互联网公开渠道,均为网友上传交流学习,影视版权均归原电影公司所有,如有侵犯版权,请与 2322694662@qq.com 联系,我们将立即删除。

    小黑屋|手机版|Archiver|百度统计|投诉|蓝光电影下载

    GMT+8, 2021-7-27 17:53 , Processed in 0.095576 second(s), 27 queries , Gzip On, MemCached On.

    Powered by Discuz! X3.4

    © 2001-2013 Comsenz Inc.

    快速回复 返回顶部 返回列表