快捷导航
查看: 37|回复: 11

[犯罪] 无人区 No.Mans.Land.2013.CHINESE.1080p.BluRay.x264.DTS-WiKi 15.53GB

[复制链接]
  • TA的每日心情

    前天 21:35
  • 签到天数: 80 天

    [LV.6]常住居民II

    1967

    主题

    2047

    帖子

    3907

    积分

    发布组

    积分
    3907
    发表于 6 天前 | 显示全部楼层 |阅读模式
    1. 帖子完整标题:无人区 No.Mans.Land.2013.CHINESE.1080p.BluRay.x264.DTS-WiKi 15.53GB
    复制代码
    无人区 No.Mans.Land.2013.CHINESE.1080p.BluRay.x264.DTS-WiKi 15.53GB-1.png


    译  名 No Man's Land/Western Sunshine
    片  名 无人区
    年  代 2013
    产  地 中国大陆
    类  别 剧情 / 犯罪 / 西部
    语  言 汉语普通话,陕西方言,甘肃方言
    上映日期 2013-12-03(中国大陆)
    IMDb评分  7.3/10 from 1991 users
    IMDb链接  https://www.imdb.com/title/tt1456660/
    豆瓣评分 8.3/10 from 417703 users
    豆瓣链接 https://movie.douban.com/subject/3804891/
    片  长 117分钟
    导  演 宁浩 Hao Ning
    编  剧 述平 Shuping / 邢爱娜 Aina Xing / 崔斯韦 Siwei Cui / 王红卫 Hongwei Wang / 尚可 Ke Shang / 宁浩 Hao Ning
    主  演 徐峥 Zheng Xu
           黄渤 Bo Huang
           余男 Nan Yu
           多布杰 Duobujie
           王双宝 Shuangbao Wang
           巴多 Duo Ba
           杨新鸣 Xinming Yang
           郭虹 Hong Guo
           陶虹 Hong Tao
           黄精一 Jingyi Huang
           赵虎 Hu Zhao
           王佩 Pei Wang
           宁浩 Hao Ning

    标  签 黑色幽默 | 人性 | 犯罪 | 无人区 | 剧情 | 黑色 | 2013 | 西部

    简  介


      小有名气但利欲熏心的律师潘肖(徐峥 饰),凭借扎实的法律知识和巧舌如簧的庭辩技巧,成功帮盗捕国家珍禽阿拉泰隼并残忍杀害一名警察的西北盗猎团伙老大(多布杰 饰)洗脱罪名。老大承诺十天后付清余款,潘肖则要求对方用一辆红色轿车抵押。在此之后,他驾驶着新车踏上从西北荒漠返回大都会的路程。谁知路上险情不断,先是和一对开卡车拉茅草的哥俩(王双宝 & 巴多 饰)发生摩擦,导致人伤车损,接着又不慎撞飞一个似乎拦车求助的男子(黄渤 饰)。自知摊上人命的潘肖辗转来到一家专事不法勾当的黑店,并在此结识了受困于此的妓女(余男 饰)。与此同时,盗猎老大尾随其后,似乎另有凶险计划。
      
      此时潘肖还没真正意识到,他前方是怎样一条充满凶险的旅途……

    获奖情况

      第64届柏林国际电影节 ?(2014)
      金熊奖最佳影片(提名) 宁浩
      
      第51届台北金马影展 ?(2014)
      金马奖最佳摄影(提名) 杜杰
      金马奖最佳美术设计(提名) 郝艺
      金马奖最佳造型设计(提名) 郝艺
      金马奖最佳原创配乐(提名) 董冬冬?/?王宗贤?/?姜勇军
      金马奖最佳剪辑(提名) 杜媛
      
      第34届香港电影金像奖 ?(2015)
      最佳两岸华语电影(提名)
      
      第8届亚洲电影大奖 ?(2014)
      最佳电影(提名)
      最佳男配角 黄渤
      最佳剪接(提名) 杜媛
      最佳美术指导(提名) 郝艺
      
      第14届华语电影传媒大奖 ?(2014)
      百家传媒年度致敬电影
      最佳男配角(提名) 多布杰
      
      第21届北京大学生电影节 ?(2014)
      最佳导演奖(提名) 宁浩
      最佳观赏效果奖(提名)
      
      第1届豆瓣电影年度榜单 ?(2014)
      1月最受关注电影(提名)
      
      第4届豆瓣电影鑫像奖 ?(2014)
      鑫豆单元最佳影片(华语)(提名)
      鑫豆单元最佳导演(华语)(提名) 宁浩
      鑫豆单元最佳男演员(华语)(提名) 徐峥?/?黄渤
      鑫豆单元最佳女演员(华语)(提名) 余男
    1. Video
    2. ID                                       : 1
    3. Format                                   : AVC
    4. Format/Info                              : Advanced Video Codec
    5. Format profile                           : High@L4
    6. Format settings                          : CABAC / 5 Ref Frames
    7. Format settings, CABAC                   : Yes
    8. Format settings, Reference frames        : 5 frames
    9. Codec ID                                 : V_MPEG4/ISO/AVC
    10. Duration                                 : 1 h 57 min
    11. Bit rate                                 : 17.5 Mb/s
    12. Width                                    : 1 920 pixels
    13. Height                                   : 832 pixels
    14. Display aspect ratio                     : 2.35:1
    15. Frame rate mode                          : Constant
    16. Frame rate                               : 24.000 FPS
    17. Color space                              : YUV
    18. Chroma subsampling                       : 4:2:0
    19. Bit depth                                : 8 bits
    20. Scan type                                : Progressive
    21. Bits/(Pixel*Frame)                       : 0.456
    22. Stream size                              : 14.3 GiB (92%)
    23. Writing library                          : x264 core 136 r2348+704+51 d1baef6 tMod [High@L4 X86_64]
    24. Encoding settings                        : cabac=1 / ref=5 / deblock=1:-3:-3 / analyse=0x3:0x133 / me=umh / subme=11 / psy=1 / fade_compensate=0.00 / psy_rd=1.05:0.10 / mixed_ref=1 / me_range=64 / chroma_me=1 / trellis=2 / 8x8dct=1 / cqm=0 / deadzone=21,11 / fast_pskip=0 / chroma_qp_offset=-3 / threads=12 / lookahead_threads=3 / sliced_threads=0 / nr=0 / decimate=0 / interlaced=0 / bluray_compat=0 / constrained_intra=0 / fgo=0 / bframes=12 / b_pyramid=2 / b_adapt=2 / b_bias=0 / direct=3 / weightb=1 / open_gop=0 / weightp=2 / keyint=250 / keyint_min=24 / scenecut=40 / intra_refresh=0 / rc_lookahead=120 / rc=2pass / mbtree=0 / bitrate=17500 / ratetol=1.0 / qcomp=0.70 / qpmin=0:0:0 / qpmax=69:69:69 / qpstep=4 / cplxblur=20.0 / qblur=0.5 / vbv_maxrate=50000 / vbv_bufsize=50000 / nal_hrd=none / ip_ratio=1.40 / pb_ratio=1.30 / aq=1:0.80 / aq-sensitivity=10.00 / aq-factor=1.00:1.00:1.00 / aq2=0 / aq3=0
    25. Language                                 : Chinese
    26. Default                                  : Yes
    27. Forced                                   : No
    28. Color range                              : Limited
    29. Matrix coefficients                      : BT.709

    30. Audio
    31. ID                                       : 2
    32. Format                                   : DTS
    33. Format/Info                              : Digital Theater Systems
    34. Codec ID                                 : A_DTS
    35. Duration                                 : 1 h 57 min
    36. Bit rate mode                            : Constant
    37. Bit rate                                 : 1 509 kb/s
    38. Channel(s)                               : 6 channels
    39. Channel layout                           : C L R Ls Rs LFE
    40. Sampling rate                            : 48.0 kHz
    41. Frame rate                               : 93.750 FPS (512 SPF)
    42. Bit depth                                : 16 bits
    43. Compression mode                         : Lossy
    44. Stream size                              : 1.23 GiB (8%)
    45. Language                                 : Chinese
    46. Default                                  : Yes
    47. Forced                                   : No

    48. Text
    49. ID                                       : 3
    50. Format                                   : UTF-8
    51. Codec ID                                 : S_TEXT/UTF8
    52. Codec ID/Info                            : UTF-8 Plain Text
    53. Duration                                 : 1 h 50 min
    54. Bit rate                                 : 28 b/s
    55. Count of elements                        : 1051
    56. Stream size                              : 23.4 KiB (0%)
    57. Language                                 : English
    58. Default                                  : Yes
    59. Forced                                   : No

    60. Menu
    61. 00:00:00.000                             : en:00:00:00.000
    62. 00:11:54.000                             : en:00:11:54.000
    63. 00:22:16.000                             : en:00:22:16.000
    64. 00:36:07.000                             : en:00:36:07.000
    65. 00:45:43.000                             : en:00:45:43.000
    66. 00:57:40.000                             : en:00:57:40.000
    67. 01:09:45.000                             : en:01:09:45.000
    68. 01:17:36.000                             : en:01:17:36.000
    69. 01:28:53.000                             : en:01:28:53.000
    70. 01:41:27.000                             : en:01:41:27.000
    复制代码

    无人区 No.Mans.Land.2013.CHINESE.1080p.BluRay.x264.DTS-WiKi 15.53GB-3.png
    无人区 No.Mans.Land.2013.CHINESE.1080p.BluRay.x264.DTS-WiKi 15.53GB-4.png
    无人区 No.Mans.Land.2013.CHINESE.1080p.BluRay.x264.DTS-WiKi 15.53GB-5.png
    本帖隐藏的内容需要VIP会员才可浏览,您需要升级才可浏览,点击这里升级VIP





    回复

    使用道具 举报

    该用户从未签到

    0

    主题

    1056

    帖子

    657

    积分

    高级会员

    Rank: 4

    积分
    657
    发表于 6 天前 | 显示全部楼层
    回复 支持 反对

    使用道具 举报

    该用户从未签到

    0

    主题

    2089

    帖子

    1500

    积分

    金牌会员

    Rank: 6Rank: 6

    积分
    1500
    发表于 6 天前 | 显示全部楼层
    感谢楼主的无私分享!要想蓝光高清电影网好 就靠你我他
    回复 支持 反对

    使用道具 举报

    该用户从未签到

    0

    主题

    5428

    帖子

    3498

    积分

    论坛元老

    Rank: 8Rank: 8

    积分
    3498
    发表于 5 天前 | 显示全部楼层

    是个好电影!必须要看的!多谢分享!
    回复 支持 反对

    使用道具 举报

    该用户从未签到

    0

    主题

    2059

    帖子

    1693

    积分

    金牌会员

    Rank: 6Rank: 6

    积分
    1693
    发表于 5 天前 | 显示全部楼层
    回复 支持 反对

    使用道具 举报

    该用户从未签到

    0

    主题

    3万

    帖子

    2万

    积分

    论坛元老

    Rank: 8Rank: 8

    积分
    26401
    发表于 5 天前 | 显示全部楼层
    这个帖子不回对不起自己!我想我是一天也不能离开蓝光电影网
    回复 支持 反对

    使用道具 举报

    该用户从未签到

    0

    主题

    677

    帖子

    10

    积分

    新手上路

    Rank: 1

    积分
    10
    发表于 5 天前 | 显示全部楼层
    回复 支持 反对

    使用道具 举报

    该用户从未签到

    0

    主题

    2万

    帖子

    1万

    积分

    论坛元老

    Rank: 8Rank: 8

    积分
    16777
    发表于 5 天前 | 显示全部楼层
    楼主太厉害了!楼主,电影应该很好看我觉得蓝光电影下载真是个好地方!
    回复 支持 反对

    使用道具 举报

    该用户从未签到

    0

    主题

    3万

    帖子

    2万

    积分

    论坛元老

    Rank: 8Rank: 8

    积分
    26401
    发表于 5 天前 | 显示全部楼层
    回复 支持 反对

    使用道具 举报

    该用户从未签到

    0

    主题

    339

    帖子

    212

    积分

    中级会员

    Rank: 3Rank: 3

    积分
    212
    发表于 4 天前 | 显示全部楼层
    回复 支持 反对

    使用道具 举报

    懒得打字嘛,点击右侧快捷回复 【右侧内容,后台自定义】
    您需要登录后才可以回帖 登录 | 立即注册

    本版积分规则

    郑重声明,本站所有作品片源来自互联网公开渠道,均为网友上传交流学习,影视版权均归原电影公司所有,如有侵犯版权,请与 2322694662@qq.com 联系,我们将立即删除。

    小黑屋|手机版|Archiver|百度统计|投诉|蓝光电影下载

    GMT+8, 2021-7-27 16:33 , Processed in 0.111761 second(s), 37 queries , Gzip On, MemCached On.

    Powered by Discuz! X3.4

    © 2001-2013 Comsenz Inc.

    快速回复 返回顶部 返回列表