快捷导航
查看: 57|回复: 12

[悬疑] 小姐 The.Handmaiden.2016.KOREAN.1080p.BluRay.x264.DTS-WiKi 14.09GB

[复制链接]
  • TA的每日心情

    前天 21:35
  • 签到天数: 89 天

    [LV.6]常住居民II

    1929

    主题

    2020

    帖子

    4183

    积分

    发布组

    积分
    4183
    发表于 6 天前 | 显示全部楼层 |阅读模式
    1. 帖子完整标题:小姐 The.Handmaiden.2016.KOREAN.1080p.BluRay.x264.DTS-WiKi 14.09GB
    复制代码



    译  名 小姐/The Handmaiden/下女的诱惑(台)/下女诱罪(港)/指匠情挑
    片  名 ???
    年  代 2016
    产  地 韩国
    类  别 剧情 / 悬疑 / 情色 / 同性
    语  言 韩语,日语
    上映日期 2016-05-14(戛纳电影节) / 2016-06-01(韩国)
    IMDb评分  8.1/10 from 104657 users
    IMDb链接  https://www.imdb.com/title/tt4016934/
    豆瓣评分 8.2/10 from 246353 users
    豆瓣链接 https://movie.douban.com/subject/25977027/
    片  长 145分钟
    导  演 朴赞郁 Chan-wook Park
    编  剧 郑瑞景 Seo-Gyeong Jeong / 朴赞郁 Chan-wook Park / 莎拉·沃特丝 Sarah Waters
    主  演 金敏喜 Min-hee Kim
           金泰梨 Tae-ri Kim
           河正宇 Jung-woo Ha
           赵震雄 Cho Jin-woong
           文素丽 So-ri Moon
           金海淑 Hae-suk Kim
           李龙女 Yong-nyeo Lee
           李东辉 Dong-Hwi Lee
           赵恩亨 Eun-hyung Jo
           丁夏潭 Ha-dam Jeong
           金仁宇 In-woo Kim
           金诗恩 Kim Si-eun
           高木里奈 Rina Takagi
           崔秉默 Byung-mo Choi
           权爀 Hyuk Kwon

    标  签 韩国 | 同性 | 情色 | 悬疑 | 爱情 | 女性 | 剧情 | 2016

    简  介


      公爵(河正宇 饰)为了得到日本贵族秀子小姐(金敏喜 饰)的财产,意欲娶她为妻,而后以其患上精神疾病为由将秀子送入精神病院。为了实现自己的阴谋,公爵将出生于小偷世家的南淑熙(金泰璃 饰)送到秀子的身边担任女佣,如此一来两人里应外合,深闺之中不谙世事的秀子和她的万贯家财根本 就是他们的囊中之物。
      
      在南淑熙的眼中,秀子天真而又脆弱,善良但是敏感,随着时间的推移,朝夕相处的两人之间产生了真挚的情谊,而公爵虚伪而又贪婪的假面渐渐令南淑熙意欲作呕。可是,面对高额的报酬,南淑熙选择了背叛,在她的游说之下,秀子和公爵私奔,举行了结婚仪式,就在这时,发生了一件令南淑熙再也想不到的意外。

    获奖情况

      第69届戛纳电影节 ?(2016)
      主竞赛单元金棕榈奖(提名) 朴赞郁
      同志金棕榈奖(提名) 朴赞郁
      
      第71届英国电影学院奖 ?(2018)
      电影奖最佳非英语片
      
      第37届韩国电影青龙奖 ?(2016)
      最佳影片(提名) 朴赞郁
      最佳导演(提名) 朴赞郁
      最佳女主角 金敏喜
      最佳新人女演员 金泰梨
      最佳美术
      最佳配乐(提名)
      最佳照明(提名)
      技术奖(提名)
      
      第11届亚洲电影大奖 ?(2017)
      最佳新演员 金泰梨
      最佳女配角 文素丽
      最佳编剧(提名) 郑瑞景?/?朴赞郁
      最佳剪接(提名) 金尚范?/?金宰范
      最佳美术指导 柳星姬
      最佳造型设计 乔桑庆
      
      第53届百想艺术大赏 ?(2017)
      电影类大赏 朴赞郁
      电影类最佳影片(提名)
      电影类最佳导演(提名) 朴赞郁
      电影类最佳女主角(提名) 金敏喜
      电影类最佳男配角(提名) 赵震雄
      电影类最佳新人女演员(提名) 金泰梨
      电影类最佳编剧(提名) 郑瑞景?/?朴赞郁
      
      第88届美国国家评论协会奖 ?(2016)
      五佳外语片(提名)
      
      第22届美国评论家选择电影奖 ?(2017)
      最佳外语片(提名)
      
      第21届金卫星奖 ?(2017)
      电影部门最佳外语片(提名)
      
      第15届华盛顿影评人协会奖 ?(2016)
      最佳外语片(提名)
      
      第37届波士顿影评人协会奖 ?(2016)
      最佳外语片 朴赞郁
      最佳摄影 延政勋
      
      第42届洛杉矶影评人协会奖 ?(2016)
      最佳艺术指导
      最佳外语片
      
      第29届芝加哥影评人协会奖 ?(2016)
      最佳影片(提名)
      最佳导演(提名) 朴赞郁
      最佳改编剧本 郑瑞景?/?朴赞郁
      最佳外语片
      最佳摄影(提名) 丁正勋
      最佳艺术指导
      
      第20届美国在线影评人协会奖 ?(2017)
      最佳影片(提名)
      最佳非英语片
      
      第3届豆瓣电影年度榜单 ?(2016)
      最受关注的非院线电影(提名)
      评分最高的韩国电影(提名)
      年度LGBT电影
      8月最受关注电影(提名)
    1. Video
    2. ID                                       : 1
    3. Format                                   : AVC
    4. Format/Info                              : Advanced Video Codec
    5. Format profile                           : High@L4
    6. Format settings, CABAC                   : Yes
    7. Format settings, ReFrames                : 5 frames
    8. Codec ID                                 : V_MPEG4/ISO/AVC
    9. Duration                                 : 2h 19mn
    10. Bit rate                                 : 13.0 Mbps
    11. Width                                    : 1 920 pixels
    12. Height                                   : 804 pixels
    13. Display aspect ratio                     : 2.40:1
    14. Frame rate mode                          : Constant
    15. Frame rate                               : 25.000 fps
    16. Color space                              : YUV
    17. Chroma subsampling                       : 4:2:0
    18. Bit depth                                : 8 bits
    19. Scan type                                : Progressive
    20. Bits/(Pixel*Frame)                       : 0.337
    21. Stream size                              : 12.3 GiB (88%)
    22. Writing library                          : x264 core 142 r2431+42 c69a006 tMod [High@L4 X86_64]
    23. Encoding settings                        : cabac=1 / ref=5 / deblock=1:-3:-3 / analyse=0x3:0x133 / me=umh / subme=11 / psy=1 / fade_compensate=0.00 / psy_rd=1.10:0.10 / mixed_ref=1 / me_range=64 / chroma_me=1 / trellis=2 / 8x8dct=1 / cqm=0 / deadzone=21,11 / fast_pskip=0 / chroma_qp_offset=-1 / threads=12 / lookahead_threads=3 / sliced_threads=0 / nr=0 / decimate=0 / interlaced=0 / bluray_compat=0 / constrained_intra=0 / fgo=0 / bframes=10 / b_pyramid=2 / b_adapt=2 / b_bias=0 / direct=3 / weightb=1 / open_gop=0 / weightp=2 / keyint=250 / keyint_min=25 / scenecut=40 / intra_refresh=0 / rc_lookahead=120 / rc=2pass / mbtree=0 / bitrate=13000 / ratetol=1.0 / qcomp=0.70 / qpmin=0:0:0 / qpmax=69:69:69 / qpstep=4 / cplxblur=20.0 / qblur=0.5 / vbv_maxrate=50000 / vbv_bufsize=50000 / nal_hrd=none / filler=0 / ip_ratio=1.40 / pb_ratio=1.30 / aq=1:0.70 / aq-sensitivity=10.00 / aq-factor=1.00:1.00:1.00 / aq2=0 / aq3=0
    24. Language                                 : Korean
    25. Default                                  : Yes
    26. Forced                                   : No

    27. Audio
    28. ID                                       : 2
    29. Format                                   : DTS
    30. Format/Info                              : Digital Theater Systems
    31. Mode                                     : 16
    32. Format settings, Endianness              : Big
    33. Codec ID                                 : A_DTS
    34. Duration                                 : 2h 19mn
    35. Bit rate mode                            : Constant
    36. Bit rate                                 : 1 509 Kbps
    37. Channel(s)                               : 6 channels
    38. Channel positions                        : Front: L C R, Side: L R, LFE
    39. Sampling rate                            : 48.0 KHz
    40. Frame rate                               : 93.750 fps (512 spf)
    41. Bit depth                                : 16 bits
    42. Compression mode                         : Lossy
    43. Stream size                              : 1.47 GiB (10%)
    44. Language                                 : Korean
    45. Default                                  : Yes
    46. Forced                                   : No

    47. Text #1
    48. ID                                       : 3
    49. Format                                   : UTF-8
    50. Codec ID                                 : S_TEXT/UTF8
    51. Codec ID/Info                            : UTF-8 Plain Text
    52. Title                                    : CHS
    53. Language                                 : Chinese
    54. Default                                  : No
    55. Forced                                   : No

    56. Text #2
    57. ID                                       : 4
    58. Format                                   : UTF-8
    59. Codec ID                                 : S_TEXT/UTF8
    60. Codec ID/Info                            : UTF-8 Plain Text
    61. Title                                    : CHT
    62. Language                                 : Chinese
    63. Default                                  : No
    64. Forced                                   : No

    65. Menu
    66. 00:00:00.000                             : en:00:00:00.000
    67. 00:12:47.320                             : en:00:12:47.320
    68. 00:22:59.560                             : en:00:22:59.560
    69. 00:33:29.360                             : en:00:33:29.360
    70. 00:46:05.960                             : en:00:46:05.960
    71. 00:57:54.640                             : en:00:57:54.640
    72. 01:10:06.120                             : en:01:10:06.120
    73. 01:22:14.520                             : en:01:22:14.520
    74. 01:30:13.840                             : en:01:30:13.840
    75. 01:44:47.280                             : en:01:44:47.280
    76. 01:53:39.240                             : en:01:53:39.240
    77. 02:05:33.080                             : en:02:05:33.080
    复制代码







    本帖隐藏的内容需要VIP会员才可浏览,您需要升级才可浏览,点击这里升级VIP





    小姐 The.Handmaiden.2016.KOREAN.1080p.BluRay.x264.DTS-WiKi 14.09GB-1.png
    小姐 The.Handmaiden.2016.KOREAN.1080p.BluRay.x264.DTS-WiKi 14.09GB-3.png
    小姐 The.Handmaiden.2016.KOREAN.1080p.BluRay.x264.DTS-WiKi 14.09GB-4.png
    小姐 The.Handmaiden.2016.KOREAN.1080p.BluRay.x264.DTS-WiKi 14.09GB-5.png
    小姐 The.Handmaiden.2016.KOREAN.1080p.BluRay.x264.DTS-WiKi 14.09GB-6.png
    小姐 The.Handmaiden.2016.KOREAN.1080p.BluRay.x264.DTS-WiKi 14.09GB-7.png
    回复

    使用道具 举报

    该用户从未签到

    0

    主题

    3万

    帖子

    2万

    积分

    论坛元老

    Rank: 8Rank: 8

    积分
    26401
    发表于 5 天前 | 显示全部楼层
    回复 支持 反对

    使用道具 举报

    该用户从未签到

    0

    主题

    1222

    帖子

    837

    积分

    高级会员

    Rank: 4

    积分
    837
    发表于 5 天前 | 显示全部楼层

    是个好电影!必须要看的!多谢分享!
    回复 支持 反对

    使用道具 举报

    该用户从未签到

    0

    主题

    7774

    帖子

    7078

    积分

    论坛元老

    Rank: 8Rank: 8

    积分
    7078
    发表于 5 天前 | 显示全部楼层
    感谢楼主的无私分享!要想蓝光高清电影网好 就靠你我他
    回复 支持 反对

    使用道具 举报

    该用户从未签到

    0

    主题

    2359

    帖子

    2046

    积分

    金牌会员

    Rank: 6Rank: 6

    积分
    2046
    发表于 5 天前 | 显示全部楼层
    回复 支持 反对

    使用道具 举报

    该用户从未签到

    0

    主题

    677

    帖子

    10

    积分

    新手上路

    Rank: 1

    积分
    10
    发表于 5 天前 | 显示全部楼层
    回复 支持 反对

    使用道具 举报

    该用户从未签到

    0

    主题

    1609

    帖子

    1488

    积分

    金牌会员

    Rank: 6Rank: 6

    积分
    1488
    发表于 5 天前 | 显示全部楼层
    回复 支持 反对

    使用道具 举报

    该用户从未签到

    0

    主题

    1070

    帖子

    854

    积分

    高级会员

    Rank: 4

    积分
    854
    发表于 5 天前 | 显示全部楼层
    回复 支持 反对

    使用道具 举报

    该用户从未签到

    0

    主题

    4247

    帖子

    3565

    积分

    论坛元老

    Rank: 8Rank: 8

    积分
    3565
    发表于 5 天前 | 显示全部楼层

    非常精彩的电影,下来收藏,感谢楼主
    回复 支持 反对

    使用道具 举报

    该用户从未签到

    0

    主题

    4247

    帖子

    3565

    积分

    论坛元老

    Rank: 8Rank: 8

    积分
    3565
    发表于 5 天前 | 显示全部楼层
    这个帖子不回对不起自己!我想我是一天也不能离开蓝光电影网
    回复 支持 反对

    使用道具 举报

    懒得打字嘛,点击右侧快捷回复 【右侧内容,后台自定义】
    您需要登录后才可以回帖 登录 | 立即注册

    本版积分规则

    郑重声明,本站所有作品片源来自互联网公开渠道,均为网友上传交流学习,影视版权均归原电影公司所有,如有侵犯版权,请与 2322694662@qq.com 联系,我们将立即删除。

    小黑屋|手机版|Archiver|百度统计|投诉|蓝光电影下载

    GMT+8, 2021-7-27 17:05 , Processed in 0.063210 second(s), 24 queries , Gzip On, MemCached On.

    Powered by Discuz! X3.4

    © 2001-2013 Comsenz Inc.

    快速回复 返回顶部 返回列表