快捷导航
查看: 31|回复: 10

[动作] 使徒行者 Line.Walker.2016.1080p.BluRay.x264-WiKi 9.75GB

[复制链接]
  • TA的每日心情

    前天 21:35
  • 签到天数: 80 天

    [LV.6]常住居民II

    1967

    主题

    2047

    帖子

    3907

    积分

    发布组

    积分
    3907
    发表于 6 天前 | 显示全部楼层 |阅读模式
    1. 帖子完整标题:使徒行者 Line.Walker.2016.1080p.BluRay.x264-WiKi 9.75GB
    复制代码



    译  名 Line Walker/使徒行者电影版
    片  名 使徒行者
    年  代 2016
    产  地 中国大陆,中国香港
    类  别 剧情 / 动作 / 犯罪
    语  言 粤语,汉语普通话
    上映日期 2016-08-11(中国大陆/中国香港)
    IMDb评分  6.1/10 from 1131 users
    IMDb链接  https://www.imdb.com/title/tt5896962/
    豆瓣评分 6.8/10 from 174929 users
    豆瓣链接 https://movie.douban.com/subject/26336253/
    片  长 109分钟
    导  演 文伟鸿 Jazz Boon
    编  剧 关皓月 Cat Kwan
    主  演 张家辉 Nick Cheung
           古天乐 Louis Koo
           吴镇宇 Francis Ng
           佘诗曼 Charmaine Sheh
           许绍雄 Siu-Hung Hui
           黄祥兴 Stephen Huynh
           朱璇 Oceane Zhu
           梁琤 Jade Leung
           李光洁 Guangjie Li
           张慧雯 Huiwen Zhang
           黄竣锋 Jason Wong
           张秀文 Sammi Cheung
           欧瑞伟 Jimmy Au
           袁富华 Fu-wah Yuen
           古天祥 Carlos Koo
           杜港 Kong To
           余达志 Tat-chi Yu
           李凯贤 Brian Lee
           冯康宁 Hong Ling Fung
           方志驹 Vernon Fong
           麦美恩 Mayanne Mak
           姚文基 Man-kei Yiu
           蔡国庆 Kwok-Hing Choi
           林盛斌 Shing-Ban Lam
           冯素波 So-Po Fung
           卢海鹏 Hoi-Pang Lo
           成泰燊 Taishen Cheng
           李成敏 Clara Lee
           陈豪 Moses Chan
           释彦能 Yanneng Shi
           陈国峰 Penny Chan
           邱芷微 Chelffy Yau
           曾敏 Judy Tsang
           黄子恒 Hugo Wong

    标  签 香港 | 卧底 | 犯罪 | 警匪 | 动作 | 悬疑 | 2016 | 剧情

    简  介

      高级警官康Sir遭人杀害,临死前他销毁了所有卧底的资料,以保护这些游走在生死线上的兄弟。在此之后,警方开始着手恢复数据,与卧底们重新取得联系。女卧底阿钉(佘诗曼 饰)某天收到一条康Sir发明的密码,在刑警男友阿Q(吴镇宇 饰)的指挥下,她尝试与这名神秘卧底进行接触。另一方面,某披着合法公司外皮的黑道组织重要成员阿蓝(张家辉 饰)和邵志朗(古天乐 饰)联手袭击了竞争对手。这二人情同手足,在公司少壮派中风头正劲,如日中天。然而警方对他们行动的预判令阿蓝开始怀疑公司有内鬼存在。
      
      经过几番试探,阿钉终于与神秘卧底接头,可是莫大的危险也向她奔涌袭来……

    获奖情况

      第36届香港电影金像奖 ?(2017)
      新晋导演(提名) 文伟鸿
      
      第3届豆瓣电影年度榜单 ?(2016)
      8月最受关注电影(提名)
    1. Video
    2. ID                                       : 1
    3. Format                                   : AVC
    4. Format/Info                              : Advanced Video Codec
    5. Format profile                           : High@L4
    6. Format settings, CABAC                   : Yes
    7. Format settings, ReFrames                : 5 frames
    8. Codec ID                                 : V_MPEG4/ISO/AVC
    9. Duration                                 : 1h 48mn
    10. Bit rate                                 : 11.5 Mbps
    11. Width                                    : 1 920 pixels
    12. Height                                   : 816 pixels
    13. Display aspect ratio                     : 2.35:1
    14. Frame rate mode                          : Constant
    15. Frame rate                               : 24.000 fps
    16. Color space                              : YUV
    17. Chroma subsampling                       : 4:2:0
    18. Bit depth                                : 8 bits
    19. Scan type                                : Progressive
    20. Bits/(Pixel*Frame)                       : 0.307
    21. Stream size                              : 8.77 GiB (90%)
    22. Writing library                          : x264 core 129 r2245+704+36 8e61944 tMod+MixAQ [High@L4:2:0 X86_64]
    23. Encoding settings                        : cabac=1 / ref=5 / deblock=1:-3:-3 / analyse=0x3:0x133 / me=umh / subme=11 / psy=1 / fade_compensate=0.00 / psy_rd=1.05:0.10 / mixed_ref=1 / me_range=64 / chroma_me=1 / trellis=2 / 8x8dct=1 / cqm=0 / deadzone=21,11 / fast_pskip=0 / chroma_qp_offset=-3 / threads=18 / lookahead_threads=3 / sliced_threads=0 / nr=0 / decimate=0 / interlaced=0 / bluray_compat=0 / constrained_intra=0 / fgo=0 / bframes=10 / b_pyramid=2 / b_adapt=2 / b_bias=0 / direct=3 / weightb=1 / open_gop=0 / weightp=2 / keyint=250 / keyint_min=24 / scenecut=40 / intra_refresh=0 / rc=2pass / mbtree=0 / bitrate=11546 / ratetol=1.0 / qcomp=0.70 / qpmin=0 / qpmax=69 / qpstep=4 / cplxblur=20.0 / qblur=0.5 / ip_ratio=1.40 / pb_ratio=1.30 / aq=1 / aq-strength=0.85 / aq-sensitivity=10.00 / aq-ifactor=1.00 / aq-pfactor=1.00 / aq-bfactor=1.00 / aq2=0
    24. Language                                 : Chinese
    25. Default                                  : Yes
    26. Forced                                   : No
    27. Color range                              : Limited
    28. Matrix coefficients                      : BT.709

    29. Audio #1
    30. ID                                       : 2
    31. Format                                   : AC-3
    32. Format/Info                              : Audio Coding 3
    33. Mode extension                           : CM (complete main)
    34. Format settings, Endianness              : Big
    35. Codec ID                                 : A_AC3
    36. Duration                                 : 1h 48mn
    37. Bit rate mode                            : Constant
    38. Bit rate                                 : 640 Kbps
    39. Channel(s)                               : 6 channels
    40. Channel positions                        : Front: L C R, Side: L R, LFE
    41. Sampling rate                            : 48.0 KHz
    42. Frame rate                               : 31.250 fps (1536 spf)
    43. Compression mode                         : Lossy
    44. Stream size                              : 498 MiB (5%)
    45. Title                                    : Cantonese
    46. Language                                 : Chinese
    47. Default                                  : Yes
    48. Forced                                   : No

    49. Audio #2
    50. ID                                       : 3
    51. Format                                   : AC-3
    52. Format/Info                              : Audio Coding 3
    53. Mode extension                           : CM (complete main)
    54. Format settings, Endianness              : Big
    55. Codec ID                                 : A_AC3
    56. Duration                                 : 1h 48mn
    57. Bit rate mode                            : Constant
    58. Bit rate                                 : 640 Kbps
    59. Channel(s)                               : 6 channels
    60. Channel positions                        : Front: L C R, Side: L R, LFE
    61. Sampling rate                            : 48.0 KHz
    62. Frame rate                               : 31.250 fps (1536 spf)
    63. Compression mode                         : Lossy
    64. Stream size                              : 498 MiB (5%)
    65. Title                                    : Mandarin
    66. Language                                 : Chinese
    67. Default                                  : No
    68. Forced                                   : No

    69. Text #1
    70. ID                                       : 4
    71. Format                                   : UTF-8
    72. Codec ID                                 : S_TEXT/UTF8
    73. Codec ID/Info                            : UTF-8 Plain Text
    74. Duration                                 : 1h 40mn
    75. Bit rate                                 : 34 bps
    76. Count of elements                        : 1041
    77. Stream size                              : 25.2 KiB (0%)
    78. Title                                    : Simplified
    79. Language                                 : Chinese
    80. Default                                  : Yes
    81. Forced                                   : No

    82. Text #2
    83. ID                                       : 5
    84. Format                                   : UTF-8
    85. Codec ID                                 : S_TEXT/UTF8
    86. Codec ID/Info                            : UTF-8 Plain Text
    87. Duration                                 : 1h 40mn
    88. Bit rate                                 : 34 bps
    89. Count of elements                        : 1041
    90. Stream size                              : 25.2 KiB (0%)
    91. Title                                    : Traditional
    92. Language                                 : Chinese
    93. Default                                  : No
    94. Forced                                   : No

    95. Menu
    96. 00:00:00.000                             : en:00:00:00.000
    97. 00:03:47.458                             : en:00:03:47.458
    98. 00:08:05.333                             : en:00:08:05.333
    99. 00:16:45.333                             : en:00:16:45.333
    100. 00:21:16.416                             : en:00:21:16.416
    101. 00:25:25.958                             : en:00:25:25.958
    102. 00:29:06.833                             : en:00:29:06.833
    103. 00:32:25.875                             : en:00:32:25.875
    104. 00:36:15.083                             : en:00:36:15.083
    105. 00:39:57.250                             : en:00:39:57.250
    106. 00:46:33.500                             : en:00:46:33.500
    107. 00:51:39.041                             : en:00:51:39.041
    108. 00:55:37.375                             : en:00:55:37.375
    109. 01:03:20.458                             : en:01:03:20.458
    110. 01:08:49.500                             : en:01:08:49.500
    111. 01:14:48.750                             : en:01:14:48.750
    112. 01:21:13.625                             : en:01:21:13.625
    113. 01:26:54.500                             : en:01:26:54.500
    114. 01:31:10.958                             : en:01:31:10.958
    115. 01:41:22.708                             : en:01:41:22.708
    复制代码






    本帖隐藏的内容需要VIP会员才可浏览,您需要升级才可浏览,点击这里升级VIP





    使徒行者 Line.Walker.2016.1080p.BluRay.x264-WiKi 9.75GB-1.png
    使徒行者 Line.Walker.2016.1080p.BluRay.x264-WiKi 9.75GB-2.png
    使徒行者 Line.Walker.2016.1080p.BluRay.x264-WiKi 9.75GB-3.png
    使徒行者 Line.Walker.2016.1080p.BluRay.x264-WiKi 9.75GB-4.png
    使徒行者 Line.Walker.2016.1080p.BluRay.x264-WiKi 9.75GB-5.png
    回复

    使用道具 举报

    该用户从未签到

    0

    主题

    3万

    帖子

    2万

    积分

    论坛元老

    Rank: 8Rank: 8

    积分
    26401
    发表于 6 天前 | 显示全部楼层
    回复 支持 反对

    使用道具 举报

    该用户从未签到

    0

    主题

    4247

    帖子

    3565

    积分

    论坛元老

    Rank: 8Rank: 8

    积分
    3565
    发表于 6 天前 | 显示全部楼层
    这个帖子不回对不起自己!我想我是一天也不能离开蓝光电影网
    回复 支持 反对

    使用道具 举报

    该用户从未签到

    0

    主题

    2万

    帖子

    1万

    积分

    论坛元老

    Rank: 8Rank: 8

    积分
    16777
    发表于 5 天前 | 显示全部楼层
    回复 支持 反对

    使用道具 举报

    该用户从未签到

    0

    主题

    3万

    帖子

    2万

    积分

    论坛元老

    Rank: 8Rank: 8

    积分
    26401
    发表于 5 天前 | 显示全部楼层
    回复 支持 反对

    使用道具 举报

    该用户从未签到

    0

    主题

    3万

    帖子

    2万

    积分

    论坛元老

    Rank: 8Rank: 8

    积分
    26401
    发表于 5 天前 | 显示全部楼层
    感谢楼主的无私分享!要想蓝光高清电影网好 就靠你我他
    回复 支持 反对

    使用道具 举报

    该用户从未签到

    0

    主题

    274

    帖子

    148

    积分

    注册会员

    Rank: 2

    积分
    148
    发表于 4 天前 | 显示全部楼层
    回复 支持 反对

    使用道具 举报

    该用户从未签到

    0

    主题

    2089

    帖子

    1500

    积分

    金牌会员

    Rank: 6Rank: 6

    积分
    1500
    发表于 3 天前 | 显示全部楼层
    回复 支持 反对

    使用道具 举报

    该用户从未签到

    0

    主题

    1万

    帖子

    1万

    积分

    论坛元老

    Rank: 8Rank: 8

    积分
    16181
    发表于 3 天前 | 显示全部楼层
    回复 支持 反对

    使用道具 举报

    该用户从未签到

    0

    主题

    5428

    帖子

    3498

    积分

    论坛元老

    Rank: 8Rank: 8

    积分
    3498
    发表于 前天 02:03 | 显示全部楼层

    非常精彩的电影,下来收藏,感谢楼主
    回复 支持 反对

    使用道具 举报

    懒得打字嘛,点击右侧快捷回复 【右侧内容,后台自定义】
    您需要登录后才可以回帖 登录 | 立即注册

    本版积分规则

    郑重声明,本站所有作品片源来自互联网公开渠道,均为网友上传交流学习,影视版权均归原电影公司所有,如有侵犯版权,请与 2322694662@qq.com 联系,我们将立即删除。

    小黑屋|手机版|Archiver|百度统计|投诉|蓝光电影下载

    GMT+8, 2021-7-27 18:00 , Processed in 0.099564 second(s), 27 queries , Gzip On, MemCached On.

    Powered by Discuz! X3.4

    © 2001-2013 Comsenz Inc.

    快速回复 返回顶部 返回列表