快捷导航
查看: 41|回复: 13

[剧情] 比海更深 After.the.Storm.2016.JAPANESE.1080p.BluRay.x264-WiKi 10.99GB

[复制链接]
  • TA的每日心情

    前天 21:35
  • 签到天数: 80 天

    [LV.6]常住居民II

    1967

    主题

    2047

    帖子

    3907

    积分

    发布组

    积分
    3907
    发表于 6 天前 | 显示全部楼层 |阅读模式
    1. 帖子完整标题:比海更深 After.the.Storm.2016.JAPANESE.1080p.BluRay.x264-WiKi 10.99GB
    复制代码



    译  名 比海更深/After the Storm/Umi yori mo mada fukaku/亲情比海深/比海还深(港/台)
    片  名 海よりもまだ深く
    年  代 2016
    产  地 日本
    类  别 剧情 / 家庭
    语  言 日语
    上映日期 2016-05-18(戛纳电影节) / 2016-05-21(日本)
    IMDb评分  7.4/10 from 8923 users
    IMDb链接  https://www.imdb.com/title/tt5294966/
    豆瓣评分 8.8/10 from 133976 users
    豆瓣链接 https://movie.douban.com/subject/26694988/
    片  长 117分钟
    导  演 是枝裕和 Hirokazu Koreeda
    编  剧 是枝裕和 Hirokazu Koreeda
    主  演 阿部宽 Hiroshi Abe
           真木阳子 Yoko Maki
           小林聪美 Satomi Kobayashi
           树木希林 Kirin Kiki
           中川雅也 Lily Franky
           池松壮亮 Sosuke Ikematsu
           桥爪功 Isao Hashizume
           中村友理 Yuri Nakamura
           高桥和也 Kazuya Takahashi
           小泽征悦 Yukiyoshi Ozawa
           峰村理惠 Rie Minemura
           古馆宽治 Kanji Furutachi
           叶山奖之 Shono Hayama
           吉泽太阳 Yoshizawa taiyō
           松冈依都美 Izumi Matsuoka
           莳田彩珠 Aju Makita

    标  签 日本 | 家庭 | 温情 | 亲情 | 人生 | 文艺 | 剧情 | 2016

    简  介

      邋遢潦倒的中年大叔筱田良多(阿部宽 饰)是一名私家侦探,早年间他作为作家出道,然而自从处女作之后就再也没有令人称道的作品问世。他满腹牢骚,自视清高,绝不愿为了钱去创作没有“灵魂”的作品。现实生活中处处为钱发愁,拿到钱后又转瞬扔进赌场,全然没有指望。母亲淑子(树木希林 饰)独自住在团地,在老人家的眼里,再差劲的儿子也有别人无可比拟的优点。良多原本拥有美满的家庭,只不过前妻白石响子(真木阳子 饰)再也无法忍受他的作为,离婚后带着儿子真吾(吉泽太阳 饰)另外过活。好不容易与儿子见上一面,良多父子以及随后赶到的响子在淑子家中团聚。台风袭来,他们被迫留在充满着往昔回忆的奶奶家过夜。
      
      喧闹却又平静的夜晚,有些事情悄然改变……

    获奖情况

      第69届戛纳电影节 ?(2016)
      一种关注单元一种关注大奖(提名) 是枝裕和
      
      第11届亚洲电影大奖 ?(2017)
      最佳摄影(提名) 山崎裕
      
      第20届美国在线影评人协会奖 ?(2017)
      最佳非北美上映影片
      
      第3届豆瓣电影年度榜单 ?(2016)
      评分最高的日本电影
    1. Video
    2. ID                                       : 1
    3. Format                                   : AVC
    4. Format/Info                              : Advanced Video Codec
    5. Format profile                           : High@L4
    6. Format settings, CABAC                   : Yes
    7. Format settings, ReFrames                : 4 frames
    8. Codec ID                                 : V_MPEG4/ISO/AVC
    9. Duration                                 : 1h 57mn
    10. Bit rate                                 : 12.7 Mbps
    11. Width                                    : 1 920 pixels
    12. Height                                   : 1 036 pixels
    13. Display aspect ratio                     : 1.85:1
    14. Frame rate mode                          : Constant
    15. Frame rate                               : 23.976 (24000/1001) fps
    16. Color space                              : YUV
    17. Chroma subsampling                       : 4:2:0
    18. Bit depth                                : 8 bits
    19. Scan type                                : Progressive
    20. Bits/(Pixel*Frame)                       : 0.267
    21. Stream size                              : 10.5 GiB (95%)
    22. Writing library                          : x264 core 129 r2245+704+36 8e61944 tMod+MixAQ [High@L4:2:0 X86_64]
    23. Encoding settings                        : cabac=1 / ref=4 / deblock=1:-3:-3 / analyse=0x3:0x133 / me=umh / subme=11 / psy=1 / fade_compensate=0.00 / psy_rd=1.05:0.10 / mixed_ref=1 / me_range=64 / chroma_me=1 / trellis=2 / 8x8dct=1 / cqm=0 / deadzone=21,11 / fast_pskip=0 / chroma_qp_offset=-3 / threads=18 / lookahead_threads=3 / sliced_threads=0 / nr=0 / decimate=0 / interlaced=0 / bluray_compat=0 / constrained_intra=0 / fgo=0 / bframes=10 / b_pyramid=2 / b_adapt=2 / b_bias=0 / direct=3 / weightb=1 / open_gop=0 / weightp=2 / keyint=250 / keyint_min=23 / scenecut=40 / intra_refresh=0 / rc_lookahead=80 / rc=2pass / mbtree=1 / bitrate=12724 / ratetol=1.0 / qcomp=0.70 / qpmin=0 / qpmax=69 / qpstep=4 / cplxblur=20.0 / qblur=0.5 / ip_ratio=1.40 / aq=1 / aq-strength=0.85 / aq-sensitivity=10.00 / aq-ifactor=1.00 / aq-pfactor=1.00 / aq-bfactor=1.00 / aq2=0
    24. Language                                 : Japanese
    25. Default                                  : Yes
    26. Forced                                   : No

    27. Audio
    28. ID                                       : 2
    29. Format                                   : AC-3
    30. Format/Info                              : Audio Coding 3
    31. Mode extension                           : CM (complete main)
    32. Format settings, Endianness              : Big
    33. Codec ID                                 : A_AC3
    34. Duration                                 : 1h 57mn
    35. Bit rate mode                            : Constant
    36. Bit rate                                 : 640 Kbps
    37. Channel(s)                               : 6 channels
    38. Channel positions                        : Front: L C R, Side: L R, LFE
    39. Sampling rate                            : 48.0 KHz
    40. Frame rate                               : 31.250 fps (1536 spf)
    41. Compression mode                         : Lossy
    42. Stream size                              : 539 MiB (5%)
    43. Language                                 : Japanese
    44. Default                                  : Yes
    45. Forced                                   : No

    46. Text #1
    47. ID                                       : 3
    48. Format                                   : ASS
    49. Codec ID                                 : S_TEXT/ASS
    50. Codec ID/Info                            : Advanced Sub Station Alpha
    51. Duration                                 : 1h 56mn
    52. Bit rate                                 : 83 bps
    53. Count of elements                        : 1794
    54. Compression mode                         : Lossless
    55. Stream size                              : 71.2 KiB (0%)
    56. Title                                    : Simplified
    57. Language                                 : Chinese
    58. Default                                  : Yes
    59. Forced                                   : No

    60. Text #2
    61. ID                                       : 4
    62. Format                                   : ASS
    63. Codec ID                                 : S_TEXT/ASS
    64. Codec ID/Info                            : Advanced Sub Station Alpha
    65. Duration                                 : 1h 56mn
    66. Bit rate                                 : 83 bps
    67. Count of elements                        : 1794
    68. Compression mode                         : Lossless
    69. Stream size                              : 71.2 KiB (0%)
    70. Title                                    : Traditional
    71. Language                                 : Chinese
    72. Default                                  : No
    73. Forced                                   : No

    74. Text #3
    75. ID                                       : 5
    76. Format                                   : UTF-8
    77. Codec ID                                 : S_TEXT/UTF8
    78. Codec ID/Info                            : UTF-8 Plain Text
    79. Duration                                 : 1h 56mn
    80. Bit rate                                 : 43 bps
    81. Count of elements                        : 1721
    82. Stream size                              : 37.1 KiB (0%)
    83. Title                                    : Simplified
    84. Language                                 : Chinese
    85. Default                                  : No
    86. Forced                                   : No

    87. Text #4
    88. ID                                       : 6
    89. Format                                   : UTF-8
    90. Codec ID                                 : S_TEXT/UTF8
    91. Codec ID/Info                            : UTF-8 Plain Text
    92. Duration                                 : 1h 56mn
    93. Bit rate                                 : 43 bps
    94. Count of elements                        : 1721
    95. Stream size                              : 37.1 KiB (0%)
    96. Title                                    : Traditional
    97. Language                                 : Chinese
    98. Default                                  : No
    99. Forced                                   : No

    100. Menu
    101. 00:00:00.000                             : en:00:00:00.000
    102. 00:06:48.533                             : en:00:06:48.533
    103. 00:12:21.824                             : en:00:12:21.824
    104. 00:16:52.177                             : en:00:16:52.177
    105. 00:22:43.278                             : en:00:22:43.278
    106. 00:31:49.866                             : en:00:31:49.866
    107. 00:39:00.212                             : en:00:39:00.212
    108. 00:46:44.968                             : en:00:46:44.968
    109. 00:51:52.109                             : en:00:51:52.109
    110. 00:58:53.029                             : en:00:58:53.029
    111. 01:03:21.464                             : en:01:03:21.464
    112. 01:08:59.760                             : en:01:08:59.760
    113. 01:15:45.958                             : en:01:15:45.958
    114. 01:21:09.823                             : en:01:21:09.823
    115. 01:27:07.597                             : en:01:27:07.597
    116. 01:36:44.507                             : en:01:36:44.507
    117. 01:42:06.286                             : en:01:42:06.286
    118. 01:48:20.494                             : en:01:48:20.494
    复制代码








    本帖隐藏的内容需要VIP会员才可浏览,您需要升级才可浏览,点击这里升级VIP




    比海更深 After.the.Storm.2016.JAPANESE.1080p.BluRay.x264-WiKi 10.99GB-1.png
    比海更深 After.the.Storm.2016.JAPANESE.1080p.BluRay.x264-WiKi 10.99GB-2.png
    比海更深 After.the.Storm.2016.JAPANESE.1080p.BluRay.x264-WiKi 10.99GB-3.png
    比海更深 After.the.Storm.2016.JAPANESE.1080p.BluRay.x264-WiKi 10.99GB-4.png
    比海更深 After.the.Storm.2016.JAPANESE.1080p.BluRay.x264-WiKi 10.99GB-5.png
    回复

    使用道具 举报

    该用户从未签到

    0

    主题

    3万

    帖子

    2万

    积分

    论坛元老

    Rank: 8Rank: 8

    积分
    26401
    发表于 6 天前 | 显示全部楼层
    回复 支持 反对

    使用道具 举报

    该用户从未签到

    0

    主题

    1267

    帖子

    808

    积分

    高级会员

    Rank: 4

    积分
    808
    发表于 6 天前 | 显示全部楼层
    回复 支持 反对

    使用道具 举报

    该用户从未签到

    0

    主题

    1097

    帖子

    671

    积分

    高级会员

    Rank: 4

    积分
    671
    发表于 5 天前 | 显示全部楼层
    楼主太厉害了!楼主,电影应该很好看我觉得蓝光电影下载真是个好地方!
    回复 支持 反对

    使用道具 举报

    该用户从未签到

    0

    主题

    3万

    帖子

    2万

    积分

    论坛元老

    Rank: 8Rank: 8

    积分
    26401
    发表于 5 天前 | 显示全部楼层
    回复 支持 反对

    使用道具 举报

    该用户从未签到

    0

    主题

    1609

    帖子

    1488

    积分

    金牌会员

    Rank: 6Rank: 6

    积分
    1488
    发表于 5 天前 | 显示全部楼层

    是个好电影!必须要看的!多谢分享!
    回复 支持 反对

    使用道具 举报

    该用户从未签到

    0

    主题

    3万

    帖子

    2万

    积分

    论坛元老

    Rank: 8Rank: 8

    积分
    26401
    发表于 5 天前 | 显示全部楼层
    这个帖子不回对不起自己!我想我是一天也不能离开蓝光电影网
    回复 支持 反对

    使用道具 举报

    该用户从未签到

    0

    主题

    3万

    帖子

    2万

    积分

    论坛元老

    Rank: 8Rank: 8

    积分
    26401
    发表于 5 天前 | 显示全部楼层

    非常精彩的电影,下来收藏,感谢楼主
    回复 支持 反对

    使用道具 举报

    该用户从未签到

    0

    主题

    2万

    帖子

    1万

    积分

    论坛元老

    Rank: 8Rank: 8

    积分
    16777
    发表于 5 天前 | 显示全部楼层
    回复 支持 反对

    使用道具 举报

    该用户从未签到

    0

    主题

    3万

    帖子

    2万

    积分

    论坛元老

    Rank: 8Rank: 8

    积分
    26401
    发表于 5 天前 | 显示全部楼层
    感谢楼主的无私分享!要想蓝光高清电影网好 就靠你我他
    回复 支持 反对

    使用道具 举报

    懒得打字嘛,点击右侧快捷回复 【右侧内容,后台自定义】
    您需要登录后才可以回帖 登录 | 立即注册

    本版积分规则

    郑重声明,本站所有作品片源来自互联网公开渠道,均为网友上传交流学习,影视版权均归原电影公司所有,如有侵犯版权,请与 2322694662@qq.com 联系,我们将立即删除。

    小黑屋|手机版|Archiver|百度统计|投诉|蓝光电影下载

    GMT+8, 2021-7-27 18:04 , Processed in 0.064679 second(s), 27 queries , Gzip On, MemCached On.

    Powered by Discuz! X3.4

    © 2001-2013 Comsenz Inc.

    快速回复 返回顶部 返回列表