快捷导航
查看: 40|回复: 13

[悬疑] 屋顶的散步者 The.Crawler.in.the.Attic.2016.JAPANESE.1080p.BluRay.x264-WiKi 9.00GB

[复制链接]
  • TA的每日心情

    前天 21:35
  • 签到天数: 89 天

    [LV.6]常住居民II

    1929

    主题

    2020

    帖子

    4183

    积分

    发布组

    积分
    4183
    发表于 6 天前 | 显示全部楼层 |阅读模式
    1. 帖子完整标题:屋顶的散步者 The.Crawler.in.the.Attic.2016.JAPANESE.1080p.BluRay.x264-WiKi 9.00GB
    复制代码
    屋顶的散步者 The.Crawler.in.the.Attic.2016.JAPANESE.1080p.BluRay.x264-WiKi 9.00GB-1.png


    译  名 屋顶的散步者/The Crawler in the Attic/屋顶上的散步者(台)
    片  名 屋根裏の散歩者
    年  代 2016
    产  地 日本
    类  别 剧情 / 悬疑 / 惊悚
    语  言 日语
    上映日期 2016-07-23(日本)
    IMDb评分  4.7/10 from 41 users
    IMDb链接  https://www.imdb.com/title/tt5805350/
    豆瓣评分 5.0/10 from 748 users
    豆瓣链接 https://movie.douban.com/subject/26818318/
    片  长 113分钟
    导  演 窪田将治 Shoji Kubota
    编  剧 江户川乱步 Rampo Edogawa / 窪田将治 Shoji Kubota
    主  演 木岛法子 Noriko Kijima
           间宫夕贵 Yuki Mamiya
           河合龙之介 Kawai Ryunosuke
           草野康太 Kouta Kusano
           松本若菜 Wakana Matsumoto
           柳忧怜 Y?rei Yanagi
           近藤芳正 Yoshimasa Kond?
           渊上泰史 Yasushi Fuchikami

    标  签 情色 | 日本 | 日本电影 | 悬疑 | 2016 | 江户川乱步 | 推理 | 小说改编

    简  介

      由三原光寻导演、嘉门洋子等主演的一部惊悚悬疑类影片。本片改编自日本著名推理小说家江户川乱步的同名小说,反映的是对偷窥者和谋杀的研究,并以爱伦·坡式的恐怖故事的味道传达专横跋扈的变态情欲。本片将原来的男性“散步者”乡田三郎设定为死者,大胆改用女性来做偷窥者和受害者,以她的行动和遭遇来推动情节的发展,同时也使得片中有着浓郁十足的香艳气息。
    1. Video
    2. ID                                       : 1
    3. Format                                   : AVC
    4. Format/Info                              : Advanced Video Codec
    5. Format profile                           : High@L4
    6. Format settings, CABAC                   : Yes
    7. Format settings, ReFrames                : 4 frames
    8. Codec ID                                 : V_MPEG4/ISO/AVC
    9. Duration                                 : 1h 53mn
    10. Bit rate                                 : 11.1 Mbps
    11. Width                                    : 1 920 pixels
    12. Height                                   : 1 080 pixels
    13. Display aspect ratio                     : 16:9
    14. Frame rate mode                          : Constant
    15. Frame rate                               : 23.976 (24000/1001) fps
    16. Color space                              : YUV
    17. Chroma subsampling                       : 4:2:0
    18. Bit depth                                : 8 bits
    19. Scan type                                : Progressive
    20. Bits/(Pixel*Frame)                       : 0.224
    21. Stream size                              : 8.84 GiB (98%)
    22. Writing library                          : x264 core 129 r2245+704+36 8e61944 tMod+MixAQ [High@L4:2:0 X86_64]
    23. Encoding settings                        : cabac=1 / ref=4 / deblock=1:-3:-3 / analyse=0x3:0x133 / me=umh / subme=11 / psy=1 / fade_compensate=0.00 / psy_rd=1.05:0.10 / mixed_ref=1 / me_range=64 / chroma_me=1 / trellis=2 / 8x8dct=1 / cqm=0 / deadzone=21,11 / fast_pskip=0 / chroma_qp_offset=-3 / threads=18 / lookahead_threads=3 / sliced_threads=0 / nr=0 / decimate=0 / interlaced=0 / bluray_compat=0 / constrained_intra=0 / fgo=0 / bframes=10 / b_pyramid=2 / b_adapt=2 / b_bias=0 / direct=3 / weightb=1 / open_gop=0 / weightp=2 / keyint=250 / keyint_min=23 / scenecut=40 / intra_refresh=0 / rc_lookahead=80 / rc=2pass / mbtree=1 / bitrate=11134 / ratetol=1.0 / qcomp=0.70 / qpmin=0 / qpmax=69 / qpstep=4 / cplxblur=20.0 / qblur=0.5 / ip_ratio=1.40 / aq=1 / aq-strength=0.90 / aq-sensitivity=10.00 / aq-ifactor=1.00 / aq-pfactor=1.00 / aq-bfactor=1.00 / aq2=0
    24. Language                                 : Japanese
    25. Default                                  : Yes
    26. Forced                                   : No

    27. Audio
    28. ID                                       : 2
    29. Format                                   : AC-3
    30. Format/Info                              : Audio Coding 3
    31. Mode extension                           : CM (complete main)
    32. Format settings, Endianness              : Big
    33. Codec ID                                 : A_AC3
    34. Duration                                 : 1h 53mn
    35. Bit rate mode                            : Constant
    36. Bit rate                                 : 192 Kbps
    37. Channel(s)                               : 2 channels
    38. Channel positions                        : Front: L R
    39. Sampling rate                            : 48.0 KHz
    40. Frame rate                               : 31.250 fps (1536 spf)
    41. Compression mode                         : Lossy
    42. Stream size                              : 156 MiB (2%)
    43. Language                                 : Japanese
    44. Default                                  : Yes
    45. Forced                                   : No

    46. Text
    47. ID                                       : 3
    48. Format                                   : ASS
    49. Codec ID                                 : S_TEXT/ASS
    50. Codec ID/Info                            : Advanced Sub Station Alpha
    51. Duration                                 : 1h 48mn
    52. Bit rate                                 : 51 bps
    53. Count of elements                        : 792
    54. Compression mode                         : Lossless
    55. Stream size                              : 40.8 KiB (0%)
    56. Language                                 : Chinese
    57. Default                                  : Yes
    58. Forced                                   : No

    59. Menu
    60. 00:00:00.000                             : en:00:00:00.000
    61. 00:18:06.668                             : en:00:18:06.668
    62. 00:33:16.911                             : en:00:33:16.911
    63. 00:44:37.758                             : en:00:44:37.758
    64. 01:04:12.390                             : en:01:04:12.390
    65. 01:21:26.381                             : en:01:21:26.381
    66. 01:36:51.847                             : en:01:36:51.847
    67. 01:45:14.808                             : en:01:45:14.808
    68. 01:53:35.808                             : en:01:53:35.808
    复制代码

    屋顶的散步者 The.Crawler.in.the.Attic.2016.JAPANESE.1080p.BluRay.x264-WiKi 9.00GB-2.png
    屋顶的散步者 The.Crawler.in.the.Attic.2016.JAPANESE.1080p.BluRay.x264-WiKi 9.00GB-3.png
    屋顶的散步者 The.Crawler.in.the.Attic.2016.JAPANESE.1080p.BluRay.x264-WiKi 9.00GB-4.png
    屋顶的散步者 The.Crawler.in.the.Attic.2016.JAPANESE.1080p.BluRay.x264-WiKi 9.00GB-5.png
    屋顶的散步者 The.Crawler.in.the.Attic.2016.JAPANESE.1080p.BluRay.x264-WiKi 9.00GB-6.png
    本帖隐藏的内容需要VIP会员才可浏览,您需要升级才可浏览,点击这里升级VIP





    回复

    使用道具 举报

    该用户从未签到

    0

    主题

    2万

    帖子

    1万

    积分

    论坛元老

    Rank: 8Rank: 8

    积分
    16777
    发表于 6 天前 | 显示全部楼层
    回复 支持 反对

    使用道具 举报

    该用户从未签到

    0

    主题

    1609

    帖子

    1488

    积分

    金牌会员

    Rank: 6Rank: 6

    积分
    1488
    发表于 6 天前 | 显示全部楼层
    感谢楼主的无私分享!要想蓝光高清电影网好 就靠你我他
    回复 支持 反对

    使用道具 举报

    该用户从未签到

    0

    主题

    3万

    帖子

    2万

    积分

    论坛元老

    Rank: 8Rank: 8

    积分
    26401
    发表于 6 天前 | 显示全部楼层
    回复 支持 反对

    使用道具 举报

    该用户从未签到

    0

    主题

    1070

    帖子

    854

    积分

    高级会员

    Rank: 4

    积分
    854
    发表于 5 天前 | 显示全部楼层
    回复 支持 反对

    使用道具 举报

    该用户从未签到

    0

    主题

    3万

    帖子

    2万

    积分

    论坛元老

    Rank: 8Rank: 8

    积分
    26401
    发表于 5 天前 | 显示全部楼层
    回复 支持 反对

    使用道具 举报

    该用户从未签到

    0

    主题

    1万

    帖子

    1万

    积分

    论坛元老

    Rank: 8Rank: 8

    积分
    16181
    发表于 5 天前 | 显示全部楼层
    回复 支持 反对

    使用道具 举报

    该用户从未签到

    0

    主题

    788

    帖子

    633

    积分

    高级会员

    Rank: 4

    积分
    633
    发表于 5 天前 | 显示全部楼层

    非常精彩的电影,下来收藏,感谢楼主
    回复 支持 反对

    使用道具 举报

    该用户从未签到

    0

    主题

    2359

    帖子

    2046

    积分

    金牌会员

    Rank: 6Rank: 6

    积分
    2046
    发表于 5 天前 | 显示全部楼层
    这个帖子不回对不起自己!我想我是一天也不能离开蓝光电影网
    回复 支持 反对

    使用道具 举报

    该用户从未签到

    0

    主题

    3万

    帖子

    2万

    积分

    论坛元老

    Rank: 8Rank: 8

    积分
    26401
    发表于 5 天前 | 显示全部楼层
    回复 支持 反对

    使用道具 举报

    懒得打字嘛,点击右侧快捷回复 【右侧内容,后台自定义】
    您需要登录后才可以回帖 登录 | 立即注册

    本版积分规则

    郑重声明,本站所有作品片源来自互联网公开渠道,均为网友上传交流学习,影视版权均归原电影公司所有,如有侵犯版权,请与 2322694662@qq.com 联系,我们将立即删除。

    小黑屋|手机版|Archiver|百度统计|投诉|蓝光电影下载

    GMT+8, 2021-7-27 16:36 , Processed in 0.064946 second(s), 27 queries , Gzip On, MemCached On.

    Powered by Discuz! X3.4

    © 2001-2013 Comsenz Inc.

    快速回复 返回顶部 返回列表