快捷导航
查看: 56|回复: 14

[动作] 惊天破 Heartfall.Arises.2016.1080p.BluRay.x264-WiKi 8.75GB

[复制链接]
  • TA的每日心情

    前天 21:35
  • 签到天数: 80 天

    [LV.6]常住居民II

    1967

    主题

    2047

    帖子

    3907

    积分

    发布组

    积分
    3907
    发表于 6 天前 | 显示全部楼层 |阅读模式
    1. 帖子完整标题:惊天破 Heartfall.Arises.2016.1080p.BluRay.x264-WiKi 8.75GB
    复制代码



    译  名 Heartfall Arises/惊心破/破地狱
    片  名 惊天破
    年  代 2016
    产  地 中国大陆,中国香港
    类  别 剧情 / 动作 / 悬疑 / 犯罪
    语  言 汉语普通话
    上映日期 2016-06-13(上海国际电影节) / 2016-10-20(中国香港/中国大陆)
    IMDb评分  4.5/10 from 228 users
    IMDb链接  https://www.imdb.com/title/tt5618870/
    豆瓣评分 3.9/10 from 23020 users
    豆瓣链接 https://movie.douban.com/subject/26220722/
    片  长 103分钟
    导  演 吴品儒 Ken Wu
    编  剧 吴品儒 Ken Wu / 顾舒怡 Shuyi Gu
    主  演 谢霆锋 Nicholas Tse
           刘青云 Sean Lau
           佟丽娅 Liya Tong
           范晓萱 Mavis Fan
           思漩 Christie Chen
           谭俊彦 Shaun Tam
           高伟光 Weiguang Gao
           蔡瀚亿 Babyjohn Choi
           高捷 Jack Kao
           邓萃雯 Sheren Tang
           马丁 Ding Ma
           颜子菲 Belinda Yan
           郭子健 Derek Kwok Chi-kin
           陈曾宁 Ning Chan
           袁富华 Fu-wah Yuen

    标  签 香港 | 犯罪 | 悬疑 | 动作 | 2016 | 心理 | 枪战 | 细胞记忆

    简  介

      在一次离奇的案件行动中,警察马进(谢霆锋 饰)击毙连环杀手“将军”(高伟光 饰),却被对方射穿心脏,命悬一线,意外之下接受了心脏移植手术。时隔一年半,国际上惊现数宗与“将军”作案手法完全一致的惊天大案,康复后的马进主动请缨,与犯罪心理学教授车家伟(刘青云 饰)联手展开调查。随着案情深入,马进发现了车教授身上藏有鲜为人知的秘密,车教授对“换心”后的马进也产生了特别的兴趣。在二人互相试探、智斗暗涌的过程中,马进妻子莫秀(范晓萱 饰)与神秘女子陈相茹(佟丽娅 饰)也逐渐卷入事件,一场危及全港百万人生命的大战悄然引爆……
    1. Video
    2. ID                                       : 1
    3. Format                                   : AVC
    4. Format/Info                              : Advanced Video Codec
    5. Format profile                           : High@L4
    6. Format settings, CABAC                   : Yes
    7. Format settings, ReFrames                : 5 frames
    8. Codec ID                                 : V_MPEG4/ISO/AVC
    9. Duration                                 : 1h 42mn
    10. Bit rate                                 : 11.0 Mbps
    11. Width                                    : 1 920 pixels
    12. Height                                   : 800 pixels
    13. Display aspect ratio                     : 2.40:1
    14. Frame rate mode                          : Constant
    15. Frame rate                               : 24.000 fps
    16. Color space                              : YUV
    17. Chroma subsampling                       : 4:2:0
    18. Bit depth                                : 8 bits
    19. Scan type                                : Progressive
    20. Bits/(Pixel*Frame)                       : 0.298
    21. Stream size                              : 7.67 GiB (88%)
    22. Writing library                          : x264 core 142 r2431+42 c69a006 tMod [High@L4 X86_64]
    23. Encoding settings                        : cabac=1 / ref=5 / deblock=1:-3:-3 / analyse=0x3:0x133 / me=umh / subme=11 / psy=1 / fade_compensate=0.00 / psy_rd=1.05:0.05 / mixed_ref=1 / me_range=64 / chroma_me=1 / trellis=2 / 8x8dct=1 / cqm=0 / deadzone=21,11 / fast_pskip=0 / chroma_qp_offset=-1 / threads=12 / lookahead_threads=2 / sliced_threads=0 / nr=0 / decimate=0 / interlaced=0 / bluray_compat=0 / constrained_intra=0 / fgo=0 / bframes=8 / b_pyramid=2 / b_adapt=2 / b_bias=0 / direct=3 / weightb=1 / open_gop=0 / weightp=2 / keyint=250 / keyint_min=24 / scenecut=40 / intra_refresh=0 / rc_lookahead=120 / rc=2pass / mbtree=0 / bitrate=11000 / ratetol=1.0 / qcomp=0.70 / qpmin=0:0:0 / qpmax=69:69:69 / qpstep=4 / cplxblur=20.0 / qblur=0.5 / vbv_maxrate=50000 / vbv_bufsize=50000 / nal_hrd=none / filler=0 / ip_ratio=1.40 / pb_ratio=1.30 / aq=1:0.70 / aq-sensitivity=10.00 / aq-factor=1.00:1.00:1.00 / aq2=0 / aq3=0
    24. Language                                 : Chinese
    25. Default                                  : Yes
    26. Forced                                   : No
    27. Color range                              : Limited
    28. Matrix coefficients                      : BT.709

    29. Audio #1
    30. ID                                       : 2
    31. Format                                   : AC-3
    32. Format/Info                              : Audio Coding 3
    33. Mode extension                           : CM (complete main)
    34. Format settings, Endianness              : Big
    35. Codec ID                                 : A_AC3
    36. Duration                                 : 1h 42mn
    37. Bit rate mode                            : Constant
    38. Bit rate                                 : 640 Kbps
    39. Channel(s)                               : 6 channels
    40. Channel positions                        : Front: L C R, Side: L R, LFE
    41. Sampling rate                            : 48.0 KHz
    42. Frame rate                               : 31.250 fps (1536 spf)
    43. Compression mode                         : Lossy
    44. Stream size                              : 467 MiB (5%)
    45. Title                                    : Cantonese
    46. Language                                 : Chinese
    47. Default                                  : Yes
    48. Forced                                   : No

    49. Audio #2
    50. ID                                       : 3
    51. Format                                   : AC-3
    52. Format/Info                              : Audio Coding 3
    53. Mode extension                           : CM (complete main)
    54. Format settings, Endianness              : Big
    55. Codec ID                                 : A_AC3
    56. Duration                                 : 1h 42mn
    57. Bit rate mode                            : Constant
    58. Bit rate                                 : 640 Kbps
    59. Channel(s)                               : 6 channels
    60. Channel positions                        : Front: L C R, Side: L R, LFE
    61. Sampling rate                            : 48.0 KHz
    62. Frame rate                               : 31.250 fps (1536 spf)
    63. Compression mode                         : Lossy
    64. Stream size                              : 467 MiB (5%)
    65. Title                                    : Mandarin
    66. Language                                 : Chinese
    67. Default                                  : No
    68. Forced                                   : No

    69. Text #1
    70. ID                                       : 4
    71. Format                                   : UTF-8
    72. Codec ID                                 : S_TEXT/UTF8
    73. Codec ID/Info                            : UTF-8 Plain Text
    74. Title                                    : CHS
    75. Language                                 : Chinese
    76. Default                                  : No
    77. Forced                                   : No

    78. Text #2
    79. ID                                       : 5
    80. Format                                   : UTF-8
    81. Codec ID                                 : S_TEXT/UTF8
    82. Codec ID/Info                            : UTF-8 Plain Text
    83. Title                                    : CHT
    84. Language                                 : Chinese
    85. Default                                  : No
    86. Forced                                   : No

    87. Menu
    88. 00:00:00.000                             : en:00:00:00.000
    89. 00:05:24.875                             : en:00:05:24.875
    90. 00:10:09.500                             : en:00:10:09.500
    91. 00:16:02.583                             : en:00:16:02.583
    92. 00:19:27.708                             : en:00:19:27.708
    93. 00:26:17.375                             : en:00:26:17.375
    94. 00:33:43.375                             : en:00:33:43.375
    95. 00:38:59.708                             : en:00:38:59.708
    96. 00:44:37.958                             : en:00:44:37.958
    97. 00:50:50.417                             : en:00:50:50.417
    98. 00:55:15.542                             : en:00:55:15.542
    99. 01:00:20.458                             : en:01:00:20.458
    100. 01:05:06.875                             : en:01:05:06.875
    101. 01:10:54.458                             : en:01:10:54.458
    102. 01:16:28.792                             : en:01:16:28.792
    103. 01:21:34.667                             : en:01:21:34.667
    104. 01:29:29.000                             : en:01:29:29.000
    105. 01:37:15.208                             : en:01:37:15.208
    复制代码







    本帖隐藏的内容需要VIP会员才可浏览,您需要升级才可浏览,点击这里升级VIP





    惊天破 Heartfall.Arises.2016.1080p.BluRay.x264-WiKi 8.75GB-1.png
    惊天破 Heartfall.Arises.2016.1080p.BluRay.x264-WiKi 8.75GB-2.png
    惊天破 Heartfall.Arises.2016.1080p.BluRay.x264-WiKi 8.75GB-3.png
    惊天破 Heartfall.Arises.2016.1080p.BluRay.x264-WiKi 8.75GB-4.png
    惊天破 Heartfall.Arises.2016.1080p.BluRay.x264-WiKi 8.75GB-5.png
    惊天破 Heartfall.Arises.2016.1080p.BluRay.x264-WiKi 8.75GB-6.png
    回复

    使用道具 举报

    该用户从未签到

    0

    主题

    2万

    帖子

    1万

    积分

    论坛元老

    Rank: 8Rank: 8

    积分
    16777
    发表于 6 天前 | 显示全部楼层

    是个好电影!必须要看的!多谢分享!
    回复 支持 反对

    使用道具 举报

    该用户从未签到

    0

    主题

    3万

    帖子

    2万

    积分

    论坛元老

    Rank: 8Rank: 8

    积分
    26401
    发表于 5 天前 | 显示全部楼层
    回复 支持 反对

    使用道具 举报

    该用户从未签到

    0

    主题

    1609

    帖子

    1488

    积分

    金牌会员

    Rank: 6Rank: 6

    积分
    1488
    发表于 5 天前 | 显示全部楼层
    回复 支持 反对

    使用道具 举报

    该用户从未签到

    0

    主题

    3万

    帖子

    2万

    积分

    论坛元老

    Rank: 8Rank: 8

    积分
    26401
    发表于 5 天前 | 显示全部楼层
    楼主太厉害了!楼主,电影应该很好看我觉得蓝光电影下载真是个好地方!
    回复 支持 反对

    使用道具 举报

    该用户从未签到

    0

    主题

    1102

    帖子

    895

    积分

    高级会员

    Rank: 4

    积分
    895
    发表于 5 天前 | 显示全部楼层

    非常精彩的电影,下来收藏,感谢楼主
    回复 支持 反对

    使用道具 举报

    该用户从未签到

    0

    主题

    1097

    帖子

    671

    积分

    高级会员

    Rank: 4

    积分
    671
    发表于 5 天前 | 显示全部楼层
    回复 支持 反对

    使用道具 举报

  • TA的每日心情
    开心
    5 天前
  • 签到天数: 1 天

    [LV.1]初来乍到

    1

    主题

    4

    帖子

    116

    积分

    注册会员

    Rank: 2

    积分
    116
    发表于 5 天前 | 显示全部楼层
    回复 支持 反对

    使用道具 举报

    该用户从未签到

    0

    主题

    2万

    帖子

    1万

    积分

    论坛元老

    Rank: 8Rank: 8

    积分
    16777
    发表于 5 天前 | 显示全部楼层
    回复 支持 反对

    使用道具 举报

    该用户从未签到

    0

    主题

    1000

    帖子

    791

    积分

    高级会员

    Rank: 4

    积分
    791
    发表于 5 天前 | 显示全部楼层
    回复 支持 反对

    使用道具 举报

    懒得打字嘛,点击右侧快捷回复 【右侧内容,后台自定义】
    您需要登录后才可以回帖 登录 | 立即注册

    本版积分规则

    郑重声明,本站所有作品片源来自互联网公开渠道,均为网友上传交流学习,影视版权均归原电影公司所有,如有侵犯版权,请与 2322694662@qq.com 联系,我们将立即删除。

    小黑屋|手机版|Archiver|百度统计|投诉|蓝光电影下载

    GMT+8, 2021-7-27 17:35 , Processed in 0.062443 second(s), 27 queries , Gzip On, MemCached On.

    Powered by Discuz! X3.4

    © 2001-2013 Comsenz Inc.

    快速回复 返回顶部 返回列表