快捷导航
查看: 48|回复: 14

[悬疑] 讨厌的女人 Desperate.Sunflowers.the.Movie.2016.JAPANESE.1080p.BluRay.x264.DTS-WiKi 9.

[复制链接]
  • TA的每日心情

    前天 21:35
  • 签到天数: 89 天

    [LV.6]常住居民II

    1929

    主题

    2020

    帖子

    4183

    积分

    发布组

    积分
    4183
    发表于 6 天前 | 显示全部楼层 |阅读模式
    1. 帖子完整标题:讨厌的女人 Desperate.Sunflowers.the.Movie.2016.JAPANESE.1080p.BluRay.x264.DTS-WiKi 9.00GB
    复制代码



    译  名 讨厌的女人/Desperate Sunflowers the Movie
    片  名 嫌な女
    年  代 2016
    产  地 日本
    类  别 悬疑
    语  言 日语
    上映日期 2016-06-25(日本)
    IMDb评分  5.5/10 from 32 users
    IMDb链接  https://www.imdb.com/title/tt4882930/
    豆瓣评分 5.8/10 from 748 users
    豆瓣链接 https://movie.douban.com/subject/26577206/
    片  长 105分钟
    导  演 黑木瞳 Hitomi Kuroki
    编  剧 西田征史 Masafumi Nishida / 桂望实 Nozomi Katsura
    主  演 吉田羊 Y? Yoshida
           木村佳乃 Yoshino Kimura
           古川雄大 Yuta Furukawa
           袴田吉彦 Yoshihiko Hakamada
           拉沙尔石井 Rasaru Ishii
           黑木瞳 Hitomi Kuroki
           永岛映子 Eiko Nagashima
           织本顺吉 Junkichi Orimoto
           佐佐木希 Nozomi Sasaki
           高田敏江 Toshie Takada
           田中丽奈 Rena Tanaka
           寺田农 Minori Terada
           水石亚飞梦 Atomu Mizuishi
           中村苍 Aoi Nakamura
           孟令军

    标  签 日本 | 2016 | 剧情 | 女性 | 人性 | 悬疑 | 人生 | 温情

    简  介

      在某知名律师事务所供职的石田彻子(吉田羊 饰)的生活、事业、爱情顺风顺水,宛如童话中的女主人公一般。谁曾想,平稳的生活因为某个人突然到来而瞬时逆转。这一天,名叫小谷夏子(木村佳乃 饰)的女人找上门来,希望彻子接手她的诉讼委托。夏子是彻子亲戚家的孩子,她刚刚和未婚夫解除婚约,并希望彻子帮她讨要相关赔偿费。在费了九牛二虎之力解决这桩委托后,夏子居然不支付任何委托费用凭空从彻子面前消失。兴许被对方的霉运所感染,彻子随即遇到一连串挫折。先是被丈夫提出离婚,接着工作上状况频出,更为此饱受上司斥责。蹉跎之际,消失的夏子再度出现,她居然厚颜无耻地再度请求彻子接受委托涉及价值高达200万日元的梵高名画的委托……
      
      本片根据桂望实的小说改编。
    1. Video
    2. ID                                       : 1
    3. Format                                   : AVC
    4. Format/Info                              : Advanced Video Codec
    5. Format profile                           : High@L4
    6. Format settings, CABAC                   : Yes
    7. Format settings, ReFrames                : 4 frames
    8. Codec ID                                 : V_MPEG4/ISO/AVC
    9. Duration                                 : 1h 45mn
    10. Bit rate                                 : 10.7 Mbps
    11. Width                                    : 1 920 pixels
    12. Height                                   : 1 036 pixels
    13. Display aspect ratio                     : 1.85:1
    14. Frame rate mode                          : Constant
    15. Frame rate                               : 23.976 (24000/1001) fps
    16. Color space                              : YUV
    17. Chroma subsampling                       : 4:2:0
    18. Bit depth                                : 8 bits
    19. Scan type                                : Progressive
    20. Bits/(Pixel*Frame)                       : 0.225
    21. Stream size                              : 7.88 GiB (88%)
    22. Writing library                          : x264 core 129 r2245+704+36 8e61944 tMod+MixAQ [High@L4:2:0 X86_64]
    23. Encoding settings                        : cabac=1 / ref=4 / deblock=1:-3:-3 / analyse=0x3:0x133 / me=umh / subme=11 / psy=1 / fade_compensate=0.00 / psy_rd=1.05:0.10 / mixed_ref=1 / me_range=64 / chroma_me=1 / trellis=2 / 8x8dct=1 / cqm=0 / deadzone=21,11 / fast_pskip=0 / chroma_qp_offset=-3 / threads=18 / lookahead_threads=3 / sliced_threads=0 / nr=0 / decimate=0 / interlaced=0 / bluray_compat=0 / constrained_intra=0 / fgo=0 / bframes=10 / b_pyramid=2 / b_adapt=2 / b_bias=0 / direct=3 / weightb=1 / open_gop=0 / weightp=2 / keyint=250 / keyint_min=23 / scenecut=40 / intra_refresh=0 / rc_lookahead=80 / rc=2pass / mbtree=1 / bitrate=10746 / ratetol=1.0 / qcomp=0.70 / qpmin=0 / qpmax=69 / qpstep=4 / cplxblur=20.0 / qblur=0.5 / ip_ratio=1.40 / aq=1 / aq-strength=0.85 / aq-sensitivity=10.00 / aq-ifactor=1.00 / aq-pfactor=1.00 / aq-bfactor=1.00 / aq2=0
    24. Language                                 : Japanese
    25. Default                                  : Yes
    26. Forced                                   : No

    27. Audio
    28. ID                                       : 2
    29. Format                                   : DTS
    30. Format/Info                              : Digital Theater Systems
    31. Mode                                     : 16
    32. Format settings, Endianness              : Big
    33. Codec ID                                 : A_DTS
    34. Duration                                 : 1h 45mn
    35. Bit rate mode                            : Constant
    36. Bit rate                                 : 1 509 Kbps
    37. Channel(s)                               : 6 channels
    38. Channel positions                        : Front: L C R, Side: L R, LFE
    39. Sampling rate                            : 48.0 KHz
    40. Frame rate                               : 93.750 fps (512 spf)
    41. Bit depth                                : 16 bits
    42. Compression mode                         : Lossy
    43. Stream size                              : 1.11 GiB (12%)
    44. Language                                 : Japanese
    45. Default                                  : Yes
    46. Forced                                   : No

    47. Text
    48. ID                                       : 3
    49. Format                                   : ASS
    50. Codec ID                                 : S_TEXT/ASS
    51. Codec ID/Info                            : Advanced Sub Station Alpha
    52. Duration                                 : 1h 39mn
    53. Bit rate                                 : 88 bps
    54. Count of elements                        : 1281
    55. Compression mode                         : Lossless
    56. Stream size                              : 65.0 KiB (0%)
    57. Language                                 : Chinese
    58. Default                                  : Yes
    59. Forced                                   : No

    60. Menu
    61. 00:00:00.000                             : en:00:00:00.000
    62. 00:08:06.110                             : en:00:08:06.110
    63. 00:20:22.429                             : en:00:20:22.429
    64. 00:29:22.844                             : en:00:29:22.844
    65. 00:40:41.647                             : en:00:40:41.647
    66. 00:49:51.655                             : en:00:49:51.655
    67. 01:02:05.555                             : en:01:02:05.555
    68. 01:12:06.530                             : en:01:12:06.530
    69. 01:23:50.275                             : en:01:23:50.275
    70. 01:34:02.845                             : en:01:34:02.845
    复制代码







    本帖隐藏的内容需要VIP会员才可浏览,您需要升级才可浏览,点击这里升级VIP




    讨厌的女人 Desperate.Sunflowers.the.Movie.2016.JAPANESE.1080p.BluRay.x264.DTS-WiKi 9.-1.png
    讨厌的女人 Desperate.Sunflowers.the.Movie.2016.JAPANESE.1080p.BluRay.x264.DTS-WiKi 9.-2.png
    讨厌的女人 Desperate.Sunflowers.the.Movie.2016.JAPANESE.1080p.BluRay.x264.DTS-WiKi 9.-3.png
    讨厌的女人 Desperate.Sunflowers.the.Movie.2016.JAPANESE.1080p.BluRay.x264.DTS-WiKi 9.-4.png
    讨厌的女人 Desperate.Sunflowers.the.Movie.2016.JAPANESE.1080p.BluRay.x264.DTS-WiKi 9.-5.png
    回复

    使用道具 举报

    该用户从未签到

    0

    主题

    3万

    帖子

    2万

    积分

    论坛元老

    Rank: 8Rank: 8

    积分
    26401
    发表于 6 天前 | 显示全部楼层

    是个好电影!必须要看的!多谢分享!
    回复 支持 反对

    使用道具 举报

    该用户从未签到

    0

    主题

    3万

    帖子

    2万

    积分

    论坛元老

    Rank: 8Rank: 8

    积分
    26401
    发表于 6 天前 | 显示全部楼层
    这个帖子不回对不起自己!我想我是一天也不能离开蓝光电影网
    回复 支持 反对

    使用道具 举报

    该用户从未签到

    0

    主题

    1097

    帖子

    671

    积分

    高级会员

    Rank: 4

    积分
    671
    发表于 5 天前 | 显示全部楼层
    楼主太厉害了!楼主,电影应该很好看我觉得蓝光电影下载真是个好地方!
    回复 支持 反对

    使用道具 举报

  • TA的每日心情
    开心
    14 小时前
  • 签到天数: 155 天

    [LV.7]常住居民III

    1

    主题

    536

    帖子

    1846

    积分

    金牌会员

    Rank: 6Rank: 6

    积分
    1846
    发表于 5 天前 | 显示全部楼层
    回复 支持 反对

    使用道具 举报

    该用户从未签到

    0

    主题

    3312

    帖子

    2405

    积分

    金牌会员

    Rank: 6Rank: 6

    积分
    2405
    发表于 5 天前 | 显示全部楼层

    非常精彩的电影,下来收藏,感谢楼主
    回复 支持 反对

    使用道具 举报

    该用户从未签到

    0

    主题

    2万

    帖子

    1万

    积分

    论坛元老

    Rank: 8Rank: 8

    积分
    16777
    发表于 5 天前 | 显示全部楼层
    回复 支持 反对

    使用道具 举报

    该用户从未签到

    0

    主题

    3万

    帖子

    2万

    积分

    论坛元老

    Rank: 8Rank: 8

    积分
    26401
    发表于 5 天前 | 显示全部楼层
    回复 支持 反对

    使用道具 举报

    该用户从未签到

    0

    主题

    1097

    帖子

    671

    积分

    高级会员

    Rank: 4

    积分
    671
    发表于 5 天前 | 显示全部楼层
    回复 支持 反对

    使用道具 举报

    该用户从未签到

    0

    主题

    3312

    帖子

    2405

    积分

    金牌会员

    Rank: 6Rank: 6

    积分
    2405
    发表于 5 天前 | 显示全部楼层
    回复 支持 反对

    使用道具 举报

    懒得打字嘛,点击右侧快捷回复 【右侧内容,后台自定义】
    您需要登录后才可以回帖 登录 | 立即注册

    本版积分规则

    郑重声明,本站所有作品片源来自互联网公开渠道,均为网友上传交流学习,影视版权均归原电影公司所有,如有侵犯版权,请与 2322694662@qq.com 联系,我们将立即删除。

    小黑屋|手机版|Archiver|百度统计|投诉|蓝光电影下载

    GMT+8, 2021-7-27 16:03 , Processed in 0.065231 second(s), 27 queries , Gzip On, MemCached On.

    Powered by Discuz! X3.4

    © 2001-2013 Comsenz Inc.

    快速回复 返回顶部 返回列表