快捷导航
查看: 197|回复: 12

[喜剧] 新汉普夏饭店/故事 The.Hotel.New.Hampshire.1984.1080p.BluRay.X264-AMIABLE 10.93GB

[复制链接]
  • TA的每日心情

    3 天前
  • 签到天数: 93 天

    [LV.6]常住居民II

    2064

    主题

    2157

    帖子

    4278

    积分

    发布组

    积分
    4278
    发表于 2021-7-25 22:23:10 | 显示全部楼层 |阅读模式
    1. 帖子完整标题:新汉普夏饭店/故事 The.Hotel.New.Hampshire.1984.1080p.BluRay.X264-AMIABLE 10.93GB
    复制代码
    新汉普夏饭店/故事 The.Hotel.New.Hampshire.1984.1080p.BluRay.X264-AMIABLE 10.93GB-1.png


    译  名 新汉普夏饭店/故事/梦幻成真/苏丝姑娘
    片  名 The Hotel New Hampshire
    年  代 1984
    产  地 英国,加拿大,美国
    类  别 剧情 / 喜剧 / 爱情
    语  言 英语
    上映日期 1984-03-09
    IMDb评分  6/10 from 7674 users
    IMDb链接  https://www.imdb.com/title/tt0087428/
    豆瓣评分 6.5/10 from 101 users
    豆瓣链接 https://movie.douban.com/subject/1301487/
    片  长 109 分钟
    导  演 托尼·理查德森 Tony Richardson
    编  剧 托尼·理查德森 Tony Richardson / 约翰·欧文 John Irving
    主  演 朱迪·福斯特 Jodie Foster
           罗伯·劳 Rob Lowe
           保罗·麦克兰尼 Paul McCrane
           博·布里奇斯 Beau Bridges
           安东尼·尤埃西 Anthony Ulc
           Cali Timmins
           威尔福德·布利姆雷 Wilford Brimley
           Louis Di Bianco
           乔恩·赫特曼 Jon Hutman
           理查德·朱特拉斯 Richard Jutras
           奥·盖尔 Lorena Gale
           乔莉·理查德森 Joely Richardson
           娜塔莎·金斯基 Nastassja Kinski
           赛斯·格林 Seth Green
           马修·莫迪恩 Matthew Modine
           Michele Scarabelli
           Jean-Louis Roux
           华莱士·肖恩 Wallace Shawn
           Jonelle Allen
           Norris Domingue
           Fred Doederlein
           詹妮弗·邓达斯 Jennifer Dundas
           阿曼达·普拉莫 Amanda Plummer
           Beno?t Laberge
           沃尔特·马西 Walter Massey
           Anita Morris
           Nicholas Podbrey
           丽莎·贝恩斯 Lisa Banes
           蒂莫西·韦伯 Timothy Webber

    标  签 JodieFoster | 美国 | 美国电影 | 英国 | 成长 | 1980s | 励志 | 家庭

    简  介

      哈佛大学的学生维恩·贝瑞放假期间在一个渡假胜地“新罕布什尔酒店”打工时认识了一个叫玛丽的女孩并且爱上了她。一个叫弗瑞德的性情古怪的老人把自己的宠物熊送给维恩,叮嘱他一定要与玛丽结婚,然后返回了自己的家乡维也纳。维恩听了他的话,与玛丽组成了家庭。战后,维恩非常怀念他与玛丽邂逅的日子,于是他们一起回到了当年那个酒店,却失望地发现昔日繁华的酒店已经彻底荒芜,他的宠物熊被当地一个男孩打死更令他伤心欲绝。他们回到家中,继续过他们的日子,并且添丁进口,但是“新罕布什尔酒店”的梦从来没从维恩的头脑中消散。全家移居到维也纳,新开了一家“新罕布什尔酒店”。此后,玛丽与他们的一个孩子在一场飞机失事中丧生,但是维恩没有消沉,带领全家继续经营酒店,并且挫败了一起企图爆炸维也纳歌剧院的阴谋,全家人都成了大英雄。他们载誉返回美国,也受到了英雄般的待遇。维恩又开设了第三家“新罕布什尔酒店”,他要把他的梦寄托在酒店身上,永远传承下去。
    1. Video
    2. ID                                       : 1
    3. Format                                   : AVC
    4. Format/Info                              : Advanced Video Codec
    5. Format profile                           : High@L4
    6. Format settings                          : CABAC / 4 Ref Frames
    7. Format settings, CABAC                   : Yes
    8. Format settings, Reference frames        : 4 frames
    9. Codec ID                                 : V_MPEG4/ISO/AVC
    10. Duration                                 : 1 h 48 min
    11. Bit rate                                 : 12.9 Mb/s
    12. Width                                    : 1 920 pixels
    13. Height                                   : 1 040 pixels
    14. Display aspect ratio                     : 1.85:1
    15. Frame rate mode                          : Constant
    16. Frame rate                               : 23.976 (24000/1001/189150) FPS
    17. Color space                              : YUV
    18. Chroma subsampling                       : 4:2:0
    19. Bit depth                                : 8 bits
    20. Scan type                                : Progressive
    21. Bits/(Pixel*Frame)                       : 0.269
    22. Stream size                              : 9.57 GiB (88%)
    23. Writing library                          : x264 core 148 r2638 7599210
    24. Encoding settings                        : cabac=1 / ref=4 / deblock=1:-3:-3 / analyse=0x3:0x113 / me=umh / subme=8 / psy=1 / psy_rd=1.10:0.00 / mixed_ref=1 / me_range=24 / chroma_me=1 / trellis=1 / 8x8dct=1 / cqm=0 / deadzone=21,11 / fast_pskip=0 / chroma_qp_offset=-2 / threads=24 / lookahead_threads=4 / sliced_threads=0 / nr=0 / decimate=1 / interlaced=0 / bluray_compat=0 / constrained_intra=0 / bframes=3 / b_pyramid=2 / b_adapt=2 / b_bias=0 / direct=3 / weightb=1 / open_gop=0 / weightp=2 / keyint=240 / keyint_min=24 / scenecut=40 / intra_refresh=0 / rc_lookahead=50 / rc=2pass / mbtree=1 / bitrate=12870 / ratetol=1.0 / qcomp=0.60 / qpmin=0 / qpmax=69 / qpstep=4 / cplxblur=20.0 / qblur=0.5 / ip_ratio=1.40 / aq=3:0.80
    25. Language                                 : English
    26. Default                                  : Yes
    27. Forced                                   : No
    28. Statistics Tags Issue                    : no_variable_data 1970-01-01 00:00:00 / no_variable_data 2010-02-22 21:41:29
    29. FromStats_BitRate                        : 12867831
    30. FromStats_Duration                       : 01:48:49.356000000
    31. FromStats_FrameCount                     : 156548
    32. FromStats_StreamSize                     : 10502331537

    33. Audio
    34. ID                                       : 2
    35. Format                                   : DTS
    36. Format/Info                              : Digital Theater Systems
    37. Codec ID                                 : A_DTS
    38. Duration                                 : 1 h 48 min
    39. Bit rate mode                            : Constant
    40. Bit rate                                 : 1 509 kb/s
    41. Channel(s)                               : 2 channels
    42. Channel layout                           : L R
    43. Sampling rate                            : 48.0 kHz
    44. Frame rate                               : 93.750 FPS (512 SPF)
    45. Bit depth                                : 24 bits
    46. Compression mode                         : Lossy
    47. Stream size                              : 1.15 GiB (10%)
    48. Language                                 : English
    49. Default                                  : Yes
    50. Forced                                   : No
    51. Statistics Tags Issue                    : no_variable_data 1970-01-01 00:00:00 / no_variable_data 2010-02-22 21:41:29
    52. FromStats_BitRate                        : 1508999
    53. FromStats_Duration                       : 01:48:50.006000000
    54. FromStats_FrameCount                     : 612188
    55. FromStats_StreamSize                     : 1231722256

    56. Menu
    57. 00:00:00.000                             : en:00:00:00.000
    58. 00:16:56.350                             : en:00:16:56.350
    59. 00:33:54.867                             : en:00:33:54.867
    60. 00:49:12.034                             : en:00:49:12.034
    61. 00:59:58.721                             : en:00:59:58.721
    62. 01:16:14.571                             : en:01:16:14.571
    63. 01:23:59.619                             : en:01:23:59.619
    64. 01:35:46.450                             : en:01:35:46.450
    复制代码

    新汉普夏饭店/故事 The.Hotel.New.Hampshire.1984.1080p.BluRay.X264-AMIABLE 10.93GB-2.png
    新汉普夏饭店/故事 The.Hotel.New.Hampshire.1984.1080p.BluRay.X264-AMIABLE 10.93GB-3.png
    新汉普夏饭店/故事 The.Hotel.New.Hampshire.1984.1080p.BluRay.X264-AMIABLE 10.93GB-4.png
    新汉普夏饭店/故事 The.Hotel.New.Hampshire.1984.1080p.BluRay.X264-AMIABLE 10.93GB-5.png
    新汉普夏饭店/故事 The.Hotel.New.Hampshire.1984.1080p.BluRay.X264-AMIABLE 10.93GB-6.png


    本帖隐藏的内容需要VIP会员才可浏览,您需要升级才可浏览,点击这里升级VIP



    回复

    使用道具 举报

  • TA的每日心情
    开心
    2021-8-16 20:10
  • 签到天数: 14 天

    [LV.3]偶尔看看II

    1

    主题

    1804

    帖子

    2158

    积分

    金牌会员

    Rank: 6Rank: 6

    积分
    2158
    发表于 2021-7-25 22:24:49 | 显示全部楼层
    回复 支持 反对

    使用道具 举报

    该用户从未签到

    0

    主题

    3万

    帖子

    2万

    积分

    论坛元老

    Rank: 8Rank: 8

    积分
    28148
    发表于 2021-7-25 22:40:45 | 显示全部楼层
    回复 支持 反对

    使用道具 举报

    该用户从未签到

    0

    主题

    3万

    帖子

    2万

    积分

    论坛元老

    Rank: 8Rank: 8

    积分
    28148
    发表于 2021-7-25 22:40:52 | 显示全部楼层
    回复 支持 反对

    使用道具 举报

    该用户从未签到

    0

    主题

    3万

    帖子

    2万

    积分

    论坛元老

    Rank: 8Rank: 8

    积分
    28148
    发表于 2021-7-26 02:18:17 | 显示全部楼层
    回复 支持 反对

    使用道具 举报

    该用户从未签到

    0

    主题

    4610

    帖子

    3937

    积分

    论坛元老

    Rank: 8Rank: 8

    积分
    3937
    发表于 2021-7-26 20:38:27 | 显示全部楼层
    回复 支持 反对

    使用道具 举报

    该用户从未签到

    0

    主题

    3万

    帖子

    2万

    积分

    论坛元老

    Rank: 8Rank: 8

    积分
    28148
    发表于 2021-7-29 00:14:34 | 显示全部楼层

    非常精彩的电影,下来收藏,感谢楼主
    回复 支持 反对

    使用道具 举报

    该用户从未签到

    0

    主题

    4610

    帖子

    3937

    积分

    论坛元老

    Rank: 8Rank: 8

    积分
    3937
    发表于 2021-7-29 02:49:44 | 显示全部楼层
    回复 支持 反对

    使用道具 举报

    该用户从未签到

    0

    主题

    3万

    帖子

    2万

    积分

    论坛元老

    Rank: 8Rank: 8

    积分
    28148
    发表于 2021-7-29 06:51:21 | 显示全部楼层
    这个帖子不回对不起自己!我想我是一天也不能离开蓝光电影网
    回复 支持 反对

    使用道具 举报

    该用户从未签到

    0

    主题

    3万

    帖子

    2万

    积分

    论坛元老

    Rank: 8Rank: 8

    积分
    28148
    发表于 2021-7-29 10:17:26 | 显示全部楼层
    回复 支持 反对

    使用道具 举报

    懒得打字嘛,点击右侧快捷回复 【右侧内容,后台自定义】
    您需要登录后才可以回帖 登录 | 立即注册

    本版积分规则

    郑重声明,本站所有作品片源来自互联网公开渠道,均为网友上传交流学习,影视版权均归原电影公司所有,如有侵犯版权,请与 2322694662@qq.com 联系,我们将立即删除。

    小黑屋|手机版|Archiver|百度统计|投诉|蓝光电影下载

    GMT+8, 2021-9-26 06:00 , Processed in 0.133928 second(s), 24 queries , Gzip On, MemCached On.

    Powered by Discuz! X3.4

    © 2001-2013 Comsenz Inc.

    快速回复 返回顶部 返回列表