快捷导航
查看: 251|回复: 13

[剧情] 女士復仇 Husband.Killers.2017.1080p.BluRay.x264-WiKi 9.71GB

[复制链接]
  • TA的每日心情

    3 天前
  • 签到天数: 109 天

    [LV.6]常住居民II

    2077

    主题

    2188

    帖子

    4739

    积分

    发布组

    积分
    4739
    发表于 2021-8-30 16:50:33 | 显示全部楼层 |阅读模式
    1. 帖子完整标题:女士復仇 Husband.Killers.2017.1080p.BluRay.x264-WiKi 9.71GB
    复制代码
    女士復仇 Husband.Killers.2017.1080p.BluRay.x264-WiKi 9.71GB-1.png


    译  名 女士复仇/Husband Killers
    片  名 女士復仇
    年  代 2016
    产  地 中国香港
    类  别 剧情
    语  言 粤语
    上映日期 2017-12-07(中国香港)
    IMDb评分  4.4/10 from 100 users
    IMDb链接  https://www.imdb.com/title/tt6608976/
    豆瓣评分 4.1/10 from 1139 users
    豆瓣链接 https://movie.douban.com/subject/26801733/
    片  长 90分钟
    导  演 火火 Fire Lee Ka Wing
    编  剧 火火 Fire Lee Ka Wing
    主  演 邓丽欣 Stephy Tang
           周秀娜 Chrissie Chaw
           乐基儿 Gaile Lok
           孙佳君 Paulyn Sun
           何傲儿 Lily Ho
           古天祥 Carlos Koo
           森美 Sammy Leung
           周家怡 Catherine Chau
           郭伟亮 Eric Kwok
           李健宏 Kevin Lee
           黎万宏 Lai Maa
           王志安 Chi On Wong

    标  签 香港 | 香港电影 | 周秀娜 | 邓丽欣 | 动作 | 2017 | 乐基儿 | 剧情

    简  介

      《女士復仇》講述女殺手Chanel(鄧麗欣 飾)已婚十年,深信丈夫從一而終;女飛貲ior(周秀娜 飾)剛巧拍拖十年,生活溫馨甜蜜。一天,兩女發現另一半有第三者 ,明查暗訪之下發現竟是對方!二人打算見面並置對方於死地,但碰面當天竟然發現賤男正準備與另一個女人Hermes(樂基兒 飾)到酒店幽會。二人決定殺入酒店殺死一對狗男女,怎料一切都是賤男設下的陷阱,立心將三女一網打盡。三女已無去路,被逼終極復仇,誓要將賤男殺死。
    1. Video
    2. ID                                       : 1
    3. Format                                   : AVC
    4. Format/Info                              : Advanced Video Codec
    5. Format profile                           : High@L4
    6. Format settings                          : CABAC / 5 Ref Frames
    7. Format settings, CABAC                   : Yes
    8. Format settings, ReFrames                : 5 frames
    9. Codec ID                                 : V_MPEG4/ISO/AVC
    10. Duration                                 : 1 h 36 min
    11. Bit rate                                 : 13.2 Mb/s
    12. Width                                    : 1 920 pixels
    13. Height                                   : 816 pixels
    14. Display aspect ratio                     : 2.35:1
    15. Frame rate mode                          : Constant
    16. Frame rate                               : 24.000 FPS
    17. Color space                              : YUV
    18. Chroma subsampling                       : 4:2:0
    19. Bit depth                                : 8 bits
    20. Scan type                                : Progressive
    21. Bits/(Pixel*Frame)                       : 0.351
    22. Stream size                              : 8.85 GiB (91%)
    23. Writing library                          : x264 core 155 r2867+74 66b5600 t_mod_Custom_2 [High@L4 X86_64]
    24. Encoding settings                        : cabac=1 / ref=5 / deblock=1:-3:-3 / analyse=0x3:0x133 / me=umh / subme=10 / psy=1 / fade_compensate=0.00 / psy_rd=1.00:0.00 / mixed_ref=1 / me_range=32 / chroma_me=1 / trellis=2 / 8x8dct=1 / cqm=0 / deadzone=21,11 / fast_pskip=0 / chroma_qp_offset=-2 / threads=24 / lookahead_threads=4 / sliced_threads=0 / nr=0 / decimate=0 / interlaced=0 / bluray_compat=0 / constrained_intra=0 / fgo=0 / bframes=8 / b_pyramid=2 / b_adapt=2 / b_bias=0 / direct=3 / weightb=1 / open_gop=0 / weightp=2 / keyint=250 / keyint_min=24 / scenecut=40 / intra_refresh=0 / rc_lookahead=60 / rc=2pass / mbtree=0 / bitrate=13200 / ratetol=1.0 / qcomp=0.70 / qpmin=0:0:0 / qpmax=69:69:69 / qpstep=4 / cplxblur=20.0 / qblur=0.5 / vbv_maxrate=50000 / vbv_bufsize=62500 / nal_hrd=none / filler=0 / ip_ratio=1.30 / pb_ratio=1.20 / aq=1:0.80 / aq-sensitivity=10.00 / aq-factor=1.00:1.00:1.00 / aq2=0 / aq3=0 / zones=408,678,b=1.5/133907,138472,b=0.4
    25. Default                                  : Yes
    26. Forced                                   : No

    27. Audio #1
    28. ID                                       : 2
    29. Format                                   : AC-3
    30. Format/Info                              : Audio Coding 3
    31. Codec ID                                 : A_AC3
    32. Duration                                 : 1 h 36 min
    33. Bit rate mode                            : Constant
    34. Bit rate                                 : 640 kb/s
    35. Channel(s)                               : 6 channels
    36. Channel positions                        : Front: L C R, Side: L R, LFE
    37. Sampling rate                            : 48.0 kHz
    38. Frame rate                               : 31.250 FPS (1536 SPF)
    39. Bit depth                                : 16 bits
    40. Compression mode                         : Lossy
    41. Stream size                              : 440 MiB (4%)
    42. Title                                    : Cantonese
    43. Language                                 : Chinese
    44. Service kind                             : Complete Main
    45. Default                                  : No
    46. Forced                                   : No

    47. Audio #2
    48. ID                                       : 3
    49. Format                                   : AC-3
    50. Format/Info                              : Audio Coding 3
    51. Codec ID                                 : A_AC3
    52. Duration                                 : 1 h 36 min
    53. Bit rate mode                            : Constant
    54. Bit rate                                 : 640 kb/s
    55. Channel(s)                               : 6 channels
    56. Channel positions                        : Front: L C R, Side: L R, LFE
    57. Sampling rate                            : 48.0 kHz
    58. Frame rate                               : 31.250 FPS (1536 SPF)
    59. Bit depth                                : 16 bits
    60. Compression mode                         : Lossy
    61. Stream size                              : 440 MiB (4%)
    62. Title                                    : Mandarin
    63. Language                                 : Chinese
    64. Service kind                             : Complete Main
    65. Default                                  : No
    66. Forced                                   : No

    67. Text #1
    68. ID                                       : 4
    69. Format                                   : UTF-8
    70. Codec ID                                 : S_TEXT/UTF8
    71. Codec ID/Info                            : UTF-8 Plain Text
    72. Duration                                 : 1 h 30 min
    73. Bit rate                                 : 30 b/s
    74. Count of elements                        : 784
    75. Stream size                              : 20.0 KiB (0%)
    76. Title                                    : cht
    77. Language                                 : Chinese
    78. Default                                  : No
    79. Forced                                   : No

    80. Text #2
    81. ID                                       : 5
    82. Format                                   : UTF-8
    83. Codec ID                                 : S_TEXT/UTF8
    84. Codec ID/Info                            : UTF-8 Plain Text
    85. Duration                                 : 1 h 30 min
    86. Bit rate                                 : 30 b/s
    87. Count of elements                        : 784
    88. Stream size                              : 20.0 KiB (0%)
    89. Title                                    : chs
    90. Language                                 : Chinese
    91. Default                                  : No
    92. Forced                                   : No

    93. Menu
    94. 00:00:00.000                             : en:00:00:00.000
    95. 00:06:19.833                             : en:00:06:19.833
    96. 00:12:05.958                             : en:00:12:05.958
    97. 00:16:02.083                             : en:00:16:02.083
    98. 00:20:04.875                             : en:00:20:04.875
    99. 00:24:40.458                             : en:00:24:40.458
    100. 00:29:35.792                             : en:00:29:35.792
    101. 00:32:00.583                             : en:00:32:00.583
    102. 00:35:53.000                             : en:00:35:53.000
    103. 00:40:07.250                             : en:00:40:07.250
    104. 00:44:50.000                             : en:00:44:50.000
    105. 00:50:00.333                             : en:00:50:00.333
    106. 00:53:18.833                             : en:00:53:18.833
    107. 01:00:02.417                             : en:01:00:02.417
    108. 01:06:11.208                             : en:01:06:11.208
    109. 01:11:12.083                             : en:01:11:12.083
    110. 01:16:15.542                             : en:01:16:15.542
    111. 01:20:11.083                             : en:01:20:11.083
    112. 01:26:52.833                             : en:01:26:52.833
    113. 01:32:59.625                             : en:01:32:59.625
    复制代码

    女士復仇 Husband.Killers.2017.1080p.BluRay.x264-WiKi 9.71GB-2.png
    女士復仇 Husband.Killers.2017.1080p.BluRay.x264-WiKi 9.71GB-3.png
    女士復仇 Husband.Killers.2017.1080p.BluRay.x264-WiKi 9.71GB-4.png
    女士復仇 Husband.Killers.2017.1080p.BluRay.x264-WiKi 9.71GB-5.png
    女士復仇 Husband.Killers.2017.1080p.BluRay.x264-WiKi 9.71GB-6.png
    女士復仇 Husband.Killers.2017.1080p.BluRay.x264-WiKi 9.71GB-7.png

    本帖隐藏的内容需要VIP会员才可浏览,您需要升级才可浏览,点击这里升级VIP




    回复

    使用道具 举报

    该用户从未签到

    0

    主题

    3万

    帖子

    2万

    积分

    论坛元老

    Rank: 8Rank: 8

    积分
    28148
    发表于 2021-8-30 16:52:14 | 显示全部楼层

    非常精彩的电影,下来收藏,感谢楼主
    回复 支持 反对

    使用道具 举报

    该用户从未签到

    0

    主题

    1195

    帖子

    1080

    积分

    金牌会员

    Rank: 6Rank: 6

    积分
    1080
    发表于 2021-8-30 17:31:38 | 显示全部楼层
    回复 支持 反对

    使用道具 举报

    该用户从未签到

    0

    主题

    2240

    帖子

    1693

    积分

    金牌会员

    Rank: 6Rank: 6

    积分
    1693
    发表于 2021-8-30 17:50:37 | 显示全部楼层
    回复 支持 反对

    使用道具 举报

    该用户从未签到

    0

    主题

    2240

    帖子

    1693

    积分

    金牌会员

    Rank: 6Rank: 6

    积分
    1693
    发表于 2021-8-30 18:37:54 | 显示全部楼层
    回复 支持 反对

    使用道具 举报

    该用户从未签到

    0

    主题

    7857

    帖子

    7078

    积分

    论坛元老

    Rank: 8Rank: 8

    积分
    7078
    发表于 2021-8-30 18:52:39 | 显示全部楼层
    回复 支持 反对

    使用道具 举报

    该用户从未签到

    0

    主题

    2万

    帖子

    1万

    积分

    论坛元老

    Rank: 8Rank: 8

    积分
    18385
    发表于 2021-8-30 18:56:49 | 显示全部楼层
    楼主太厉害了!楼主,电影应该很好看我觉得蓝光电影下载真是个好地方!
    回复 支持 反对

    使用道具 举报

    该用户从未签到

    0

    主题

    3445

    帖子

    2405

    积分

    金牌会员

    Rank: 6Rank: 6

    积分
    2405
    发表于 2021-8-30 19:53:04 | 显示全部楼层
    这个帖子不回对不起自己!我想我是一天也不能离开蓝光电影网
    回复 支持 反对

    使用道具 举报

    该用户从未签到

    0

    主题

    2454

    帖子

    2256

    积分

    金牌会员

    Rank: 6Rank: 6

    积分
    2256
    发表于 2021-8-30 19:53:55 | 显示全部楼层
    感谢楼主的无私分享!要想蓝光高清电影网好 就靠你我他
    回复 支持 反对

    使用道具 举报

    该用户从未签到

    0

    主题

    2240

    帖子

    1693

    积分

    金牌会员

    Rank: 6Rank: 6

    积分
    1693
    发表于 2021-8-30 22:53:29 | 显示全部楼层

    是个好电影!必须要看的!多谢分享!
    回复 支持 反对

    使用道具 举报

    懒得打字嘛,点击右侧快捷回复 【右侧内容,后台自定义】
    您需要登录后才可以回帖 登录 | 立即注册

    本版积分规则

    郑重声明,本站所有作品片源来自互联网公开渠道,均为网友上传交流学习,影视版权均归原电影公司所有,如有侵犯版权,请与 2322694662@qq.com 联系,我们将立即删除。

    小黑屋|手机版|Archiver|百度统计|投诉|蓝光电影下载

    GMT+8, 2021-10-17 10:51 , Processed in 0.135444 second(s), 26 queries , Gzip On, MemCached On.

    Powered by Discuz! X3.4

    © 2001-2013 Comsenz Inc.

    快速回复 返回顶部 返回列表