快捷导航
查看: 167|回复: 12

[动作] 抢红 Wine.War.2017.CHINESE.1080p.BluRay.x264-WiKi 7.93GB

[复制链接]
  • TA的每日心情

    6 天前
  • 签到天数: 96 天

    [LV.6]常住居民II

    2082

    主题

    2178

    帖子

    4362

    积分

    发布组

    积分
    4362
    发表于 2021-8-30 16:59:59 | 显示全部楼层 |阅读模式
    1. 帖子完整标题:抢红 Wine.War.2017.CHINESE.1080p.BluRay.x264-WiKi 7.93GB
    复制代码
    抢红 Wine.War.2017.CHINESE.1080p.BluRay.x264-WiKi 7.93GB-1.png


    译  名 Wine War/Z计划
    片  名 抢红
    年  代 2017
    产  地 中国大陆
    类  别 动作 / 犯罪
    语  言 汉语普通话
    上映日期 2017-05-19(中国大陆)
    IMDb评分  3.9/10 from 95 users
    IMDb链接  https://www.imdb.com/title/tt3699104/
    豆瓣评分 3.1/10 from 6538 users
    豆瓣链接 https://movie.douban.com/subject/26661183/
    片  长 90分钟
    导  演 黎明 Leon Lai
    编  剧 毕成功 Chenggong Bi / 黎明 Leon Lai
    主  演 张涵予 Hanyu Zhang
           黎明 Leon Lai
           王耀庆 David Wang
           杜鹃 Juan Du
           南伏龙 Fulong Nan
           黄尚禾 Shang-Ho Huang
           吉丽 Lily Ji
           苍井空 Sola Aoi
           张雨晴 Yuqing Zhang
           边程 Cheng Bian

    标  签 2017 | 动作 | 喜剧 | 华语 | 中国 | 犯罪 | 硬汉 | 处女作

    简  介

      朝不保夕的司机张水(张涵予 饰),受上司方长方(王耀庆 饰)利诱,答应亲赴法国邀请义弟韦力(黎明 饰)帮忙参加天价红酒的竞拍。张水谎称为国家执行秘密任务骗得韦力的信任,一同前往品酒大会。拍卖现场,张水意外的发现指使自己来参加拍卖会的老板方长方也在现场,而此时的方长方好像从没认识过张水...品酒会的主持者利芳(杜鹃 饰)与各路买家逐一品酒,只有通过考验的人才可以参与到竞拍环节。
      
      利芳同父异母的哥哥LK此时在众人之外静静的看着所发生的一切,谁也想不到,拍卖会的真正目的根本不是卖酒……
    1. Video
    2. ID                                       : 1
    3. Format                                   : AVC
    4. Format/Info                              : Advanced Video Codec
    5. Format profile                           : High@L4
    6. Format settings                          : CABAC / 5 Ref Frames
    7. Format settings, CABAC                   : Yes
    8. Format settings, ReFrames                : 5 frames
    9. Codec ID                                 : V_MPEG4/ISO/AVC
    10. Duration                                 : 1 h 30 min
    11. Bit rate                                 : 12.0 Mb/s
    12. Width                                    : 1 920 pixels
    13. Height                                   : 804 pixels
    14. Display aspect ratio                     : 2.40:1
    15. Frame rate mode                          : Constant
    16. Frame rate                               : 24.000 FPS
    17. Color space                              : YUV
    18. Chroma subsampling                       : 4:2:0
    19. Bit depth                                : 8 bits
    20. Scan type                                : Progressive
    21. Bits/(Pixel*Frame)                       : 0.324
    22. Stream size                              : 7.53 GiB (95%)
    23. Writing library                          : x264 core 129 r2245 bc13772
    24. Encoding settings                        : cabac=1 / ref=5 / deblock=1:-3:-3 / analyse=0x3:0x133 / me=umh / subme=11 / psy=1 / psy_rd=1.05:0.05 / mixed_ref=1 / me_range=64 / chroma_me=1 / trellis=2 / 8x8dct=1 / cqm=0 / deadzone=21,11 / fast_pskip=0 / chroma_qp_offset=-3 / threads=12 / lookahead_threads=2 / sliced_threads=0 / nr=0 / decimate=1 / interlaced=0 / bluray_compat=0 / constrained_intra=0 / bframes=8 / b_pyramid=2 / b_adapt=2 / b_bias=0 / direct=3 / weightb=1 / open_gop=0 / weightp=2 / keyint=250 / keyint_min=24 / scenecut=40 / intra_refresh=0 / rc_lookahead=60 / rc=2pass / mbtree=1 / bitrate=12002 / ratetol=1.0 / qcomp=0.60 / qpmin=0 / qpmax=69 / qpstep=4 / cplxblur=20.0 / qblur=0.5 / vbv_maxrate=40000 / vbv_bufsize=30000 / nal_hrd=none / ip_ratio=1.40 / aq=1:0.85
    25. Language                                 : English
    26. Default                                  : Yes
    27. Forced                                   : No

    28. Audio
    29. ID                                       : 2
    30. Format                                   : AC-3
    31. Format/Info                              : Audio Coding 3
    32. Codec ID                                 : A_AC3
    33. Duration                                 : 1 h 30 min
    34. Bit rate mode                            : Constant
    35. Bit rate                                 : 640 kb/s
    36. Channel(s)                               : 6 channels
    37. Channel positions                        : Front: L C R, Side: L R, LFE
    38. Sampling rate                            : 48.0 kHz
    39. Frame rate                               : 31.250 FPS (1536 SPF)
    40. Bit depth                                : 16 bits
    41. Compression mode                         : Lossy
    42. Stream size                              : 412 MiB (5%)
    43. Language                                 : Chinese
    44. Service kind                             : Complete Main
    45. Default                                  : Yes
    46. Forced                                   : No

    47. Text #1
    48. ID                                       : 3
    49. Format                                   : UTF-8
    50. Codec ID                                 : S_TEXT/UTF8
    51. Codec ID/Info                            : UTF-8 Plain Text
    52. Duration                                 : 1 h 18 min
    53. Bit rate                                 : 49 b/s
    54. Count of elements                        : 1255
    55. Stream size                              : 28.6 KiB (0%)
    56. Title                                    : 简体
    57. Language                                 : Chinese
    58. Default                                  : Yes
    59. Forced                                   : No

    60. Text #2
    61. ID                                       : 4
    62. Format                                   : UTF-8
    63. Codec ID                                 : S_TEXT/UTF8
    64. Codec ID/Info                            : UTF-8 Plain Text
    65. Duration                                 : 1 h 18 min
    66. Bit rate                                 : 49 b/s
    67. Count of elements                        : 1255
    68. Stream size                              : 28.6 KiB (0%)
    69. Title                                    : 繁体
    70. Language                                 : Chinese
    71. Default                                  : No
    72. Forced                                   : No
    复制代码

    抢红 Wine.War.2017.CHINESE.1080p.BluRay.x264-WiKi 7.93GB-2.png
    抢红 Wine.War.2017.CHINESE.1080p.BluRay.x264-WiKi 7.93GB-3.png
    本帖隐藏的内容需要VIP会员才可浏览,您需要升级才可浏览,点击这里升级VIP





    回复

    使用道具 举报

  • TA的每日心情
    开心
    2021-8-16 20:10
  • 签到天数: 14 天

    [LV.3]偶尔看看II

    1

    主题

    1817

    帖子

    2158

    积分

    金牌会员

    Rank: 6Rank: 6

    积分
    2158
    发表于 2021-8-30 17:00:40 | 显示全部楼层
    感谢楼主的无私分享!要想蓝光高清电影网好 就靠你我他
    回复 支持 反对

    使用道具 举报

    该用户从未签到

    0

    主题

    2万

    帖子

    1万

    积分

    论坛元老

    Rank: 8Rank: 8

    积分
    18385
    发表于 2021-8-30 17:05:47 | 显示全部楼层
    回复 支持 反对

    使用道具 举报

    该用户从未签到

    0

    主题

    1万

    帖子

    1万

    积分

    论坛元老

    Rank: 8Rank: 8

    积分
    17623
    发表于 2021-8-30 17:24:01 | 显示全部楼层
    回复 支持 反对

    使用道具 举报

    该用户从未签到

    0

    主题

    1195

    帖子

    1080

    积分

    金牌会员

    Rank: 6Rank: 6

    积分
    1080
    发表于 2021-8-30 23:23:12 | 显示全部楼层

    非常精彩的电影,下来收藏,感谢楼主
    回复 支持 反对

    使用道具 举报

    该用户从未签到

    0

    主题

    3万

    帖子

    2万

    积分

    论坛元老

    Rank: 8Rank: 8

    积分
    28148
    发表于 2021-8-31 00:49:18 | 显示全部楼层

    是个好电影!必须要看的!多谢分享!
    回复 支持 反对

    使用道具 举报

    该用户从未签到

    0

    主题

    1257

    帖子

    1106

    积分

    金牌会员

    Rank: 6Rank: 6

    积分
    1106
    发表于 2021-8-31 01:53:34 | 显示全部楼层
    这个帖子不回对不起自己!我想我是一天也不能离开蓝光电影网
    回复 支持 反对

    使用道具 举报

    该用户从未签到

    0

    主题

    4280

    帖子

    2334

    积分

    金牌会员

    Rank: 6Rank: 6

    积分
    2334
    发表于 2021-8-31 04:17:54 | 显示全部楼层
    回复 支持 反对

    使用道具 举报

    该用户从未签到

    0

    主题

    5940

    帖子

    4497

    积分

    论坛元老

    Rank: 8Rank: 8

    积分
    4497
    发表于 2021-8-31 10:41:37 | 显示全部楼层
    回复 支持 反对

    使用道具 举报

    该用户从未签到

    0

    主题

    3万

    帖子

    2万

    积分

    论坛元老

    Rank: 8Rank: 8

    积分
    28148
    发表于 2021-8-31 16:11:45 | 显示全部楼层
    回复 支持 反对

    使用道具 举报

    懒得打字嘛,点击右侧快捷回复 【右侧内容,后台自定义】
    您需要登录后才可以回帖 登录 | 立即注册

    本版积分规则

    郑重声明,本站所有作品片源来自互联网公开渠道,均为网友上传交流学习,影视版权均归原电影公司所有,如有侵犯版权,请与 2322694662@qq.com 联系,我们将立即删除。

    小黑屋|手机版|Archiver|百度统计|投诉|蓝光电影下载

    GMT+8, 2021-10-17 11:50 , Processed in 0.106796 second(s), 26 queries , Gzip On, MemCached On.

    Powered by Discuz! X3.4

    © 2001-2013 Comsenz Inc.

    快速回复 返回顶部 返回列表