快捷导航
查看: 205|回复: 12

[恐怖] 黑暗缪斯 Muse.2017.1080p.BluRay.x264.DTS-HD.MA.5.1-FGT 10.91GB

[复制链接]
  • TA的每日心情

    3 天前
  • 签到天数: 109 天

    [LV.6]常住居民II

    2077

    主题

    2188

    帖子

    4739

    积分

    发布组

    积分
    4739
    发表于 2021-8-30 17:06:51 | 显示全部楼层 |阅读模式
    1. 帖子完整标题:黑暗缪斯 Muse.2017.1080p.BluRay.x264.DTS-HD.MA.5.1-FGT 10.91GB
    复制代码
    黑暗缪斯 Muse.2017.1080p.BluRay.x264.DTS-HD.MA.5.1-FGT 10.91GB-1.png


    译  名 黑暗缪斯/Musa/阴诗咒(港)
    片  名 Muse
    年  代 2017
    产  地 西班牙,爱尔兰,比利时,法国
    类  别 惊悚 / 恐怖
    语  言 英语
    上映日期 2017-10-07(锡切斯电影节) / 2017-11-10(西班牙)
    IMDb评分  5.4/10 from 3095 users
    IMDb链接  https://www.imdb.com/title/tt5041296/
    豆瓣评分 5.6/10 from 975 users
    豆瓣链接 https://movie.douban.com/subject/26748139/
    片  长 107分钟
    导  演 豪梅·巴拉格罗 Jaume Balagueró
    编  剧 豪梅·巴拉格罗 Jaume Balagueró / 费尔南多·纳瓦罗 Fernando Navarro / Fernando Navarro
    主  演 艾略特·科万 Elliot Cowan
           弗朗卡·波滕特 Franka Potente
           安娜·乌拉鲁 Ana Ularu
           蕾欧诺·瓦特林 Leonor Watling
           曼努埃拉·贝列斯 Manuela Vellés
           琼妮·威利 Joanne Whalley
           克里斯托弗·洛伊德 Christopher Lloyd
           斯特拉·麦克考斯克 Stella McCusker
           张茵 Yennis Cheung
           吉伦?麦格林 ciaran mcglynn
           萨姆·哈迪 Sam Hardy
           伊芙·玛赫 Eve maher

    标  签 恐怖 | 惊悚 | 西班牙 | 悬疑 | 灵异 | 2017 | 西班牙电影 | 人性

    简  介


      文学教授所罗门在女友不幸逝世后,郁郁寡欢,离职了一年。塞缪尔一直在遭受反复的噩梦:一个女人在一场奇怪的仪式中被残忍杀害。后来,如同梦境重演,一个受害者在相同情境下被无情杀害。 塞缪尔随即开始调查犯罪现场,遇到了也做过同样怪梦的雷切尔。 他们联手去揭开事件的真相,原来这一切和神话里的缪斯女神有关……
    1. Video
    2. ID                                       : 1
    3. Format                                   : AVC
    4. Format/Info                              : Advanced Video Codec
    5. Format profile                           : High@L4
    6. Format settings                          : CABAC / 5 Ref Frames
    7. Format settings, CABAC                   : Yes
    8. Format settings, ReFrames                : 5 frames
    9. Codec ID                                 : V_MPEG4/ISO/AVC
    10. Duration                                 : 1 h 47 min
    11. Bit rate                                 : 10.9 Mb/s
    12. Width                                    : 1 920 pixels
    13. Height                                   : 804 pixels
    14. Display aspect ratio                     : 2.40:1
    15. Frame rate mode                          : Constant
    16. Frame rate                               : 24.000 FPS
    17. Color space                              : YUV
    18. Chroma subsampling                       : 4:2:0
    19. Bit depth                                : 8 bits
    20. Scan type                                : Progressive
    21. Bits/(Pixel*Frame)                       : 0.295
    22. Stream size                              : 8.22 GiB (75%)
    23. Title                                    : Muse.2017.1080p.BluRay.x264.DTS-HD.MA.5.1-FGT
    24. Writing library                          : x264 core 148 r2795 aaa9aa8
    25. Encoding settings                        : cabac=1 / ref=5 / deblock=1:0:0 / analyse=0x3:0x133 / me=umh / subme=10 / psy=1 / psy_rd=1.00:0.00 / mixed_ref=1 / me_range=24 / chroma_me=1 / trellis=2 / 8x8dct=1 / cqm=0 / deadzone=21,11 / fast_pskip=1 / chroma_qp_offset=-2 / threads=24 / lookahead_threads=4 / sliced_threads=0 / nr=0 / decimate=1 / interlaced=0 / bluray_compat=0 / constrained_intra=0 / bframes=8 / b_pyramid=2 / b_adapt=2 / b_bias=0 / direct=3 / weightb=1 / open_gop=0 / weightp=2 / keyint=240 / keyint_min=24 / scenecut=40 / intra_refresh=0 / rc_lookahead=60 / rc=crf / mbtree=1 / crf=12.0 / qcomp=0.60 / qpmin=0 / qpmax=69 / qpstep=4 / ip_ratio=1.40 / aq=1:1.00
    26. Language                                 : English
    27. Default                                  : Yes
    28. Forced                                   : No

    29. Audio
    30. ID                                       : 2
    31. Format                                   : DTS
    32. Format/Info                              : Digital Theater Systems
    33. Format profile                           : MA / Core
    34. Codec ID                                 : A_DTS
    35. Duration                                 : 1 h 47 min
    36. Bit rate mode                            : Variable / Constant
    37. Bit rate                                 : 3 576 kb/s / 1 509 kb/s
    38. Channel(s)                               : 6 channels
    39. Channel positions                        : Front: L C R, Side: L R, LFE
    40. Sampling rate                            : 48.0 kHz
    41. Frame rate                               : 93.750 FPS (512 SPF)
    42. Bit depth                                : 24 bits
    43. Compression mode                         : Lossless / Lossy
    44. Stream size                              : 2.69 GiB (25%)
    45. Title                                    : Muse.2017.1080p.BluRay.x264.DTS-HD.MA.5.1-FGT
    46. Language                                 : English
    47. Default                                  : Yes
    48. Forced                                   : No

    49. Menu
    50. 00:00:00.000                             : en:Chapter 01
    51. 00:14:04.000                             : en:Chapter 02
    52. 00:25:49.500                             : en:Chapter 03
    53. 00:39:30.208                             : en:Chapter 04
    54. 00:52:09.291                             : en:Chapter 05
    55. 01:04:45.125                             : en:Chapter 06
    56. 01:18:07.916                             : en:Chapter 07
    57. 01:27:42.375                             : en:Chapter 08
    复制代码

    黑暗缪斯 Muse.2017.1080p.BluRay.x264.DTS-HD.MA.5.1-FGT 10.91GB-3.png
    黑暗缪斯 Muse.2017.1080p.BluRay.x264.DTS-HD.MA.5.1-FGT 10.91GB-4.png
    本帖隐藏的内容需要VIP会员才可浏览,您需要升级才可浏览,点击这里升级VIP





    回复

    使用道具 举报

    该用户从未签到

    0

    主题

    2240

    帖子

    1693

    积分

    金牌会员

    Rank: 6Rank: 6

    积分
    1693
    发表于 2021-8-30 17:07:18 | 显示全部楼层

    非常精彩的电影,下来收藏,感谢楼主
    回复 支持 反对

    使用道具 举报

    该用户从未签到

    0

    主题

    3万

    帖子

    2万

    积分

    论坛元老

    Rank: 8Rank: 8

    积分
    28148
    发表于 2021-8-30 17:48:04 | 显示全部楼层
    回复 支持 反对

    使用道具 举报

    该用户从未签到

    0

    主题

    1万

    帖子

    1万

    积分

    论坛元老

    Rank: 8Rank: 8

    积分
    17623
    发表于 2021-8-30 20:44:51 | 显示全部楼层
    感谢楼主的无私分享!要想蓝光高清电影网好 就靠你我他
    回复 支持 反对

    使用道具 举报

    该用户从未签到

    0

    主题

    1320

    帖子

    808

    积分

    高级会员

    Rank: 4

    积分
    808
    发表于 2021-8-30 22:54:43 | 显示全部楼层
    回复 支持 反对

    使用道具 举报

    该用户从未签到

    0

    主题

    4643

    帖子

    3937

    积分

    论坛元老

    Rank: 8Rank: 8

    积分
    3937
    发表于 2021-8-30 23:21:47 | 显示全部楼层
    回复 支持 反对

    使用道具 举报

    该用户从未签到

    0

    主题

    2万

    帖子

    1万

    积分

    论坛元老

    Rank: 8Rank: 8

    积分
    18385
    发表于 2021-8-31 00:49:05 | 显示全部楼层
    回复 支持 反对

    使用道具 举报

    该用户从未签到

    0

    主题

    1122

    帖子

    657

    积分

    高级会员

    Rank: 4

    积分
    657
    发表于 2021-8-31 04:03:08 | 显示全部楼层

    是个好电影!必须要看的!多谢分享!
    回复 支持 反对

    使用道具 举报

  • TA的每日心情
    开心
    2021-8-16 20:10
  • 签到天数: 14 天

    [LV.3]偶尔看看II

    1

    主题

    1817

    帖子

    2158

    积分

    金牌会员

    Rank: 6Rank: 6

    积分
    2158
    发表于 2021-8-31 10:01:09 | 显示全部楼层
    回复 支持 反对

    使用道具 举报

    该用户从未签到

    0

    主题

    1724

    帖子

    1051

    积分

    金牌会员

    Rank: 6Rank: 6

    积分
    1051
    发表于 2021-8-31 10:41:34 | 显示全部楼层
    回复 支持 反对

    使用道具 举报

    懒得打字嘛,点击右侧快捷回复 【右侧内容,后台自定义】
    您需要登录后才可以回帖 登录 | 立即注册

    本版积分规则

    郑重声明,本站所有作品片源来自互联网公开渠道,均为网友上传交流学习,影视版权均归原电影公司所有,如有侵犯版权,请与 2322694662@qq.com 联系,我们将立即删除。

    小黑屋|手机版|Archiver|百度统计|投诉|蓝光电影下载

    GMT+8, 2021-10-17 12:16 , Processed in 0.121010 second(s), 26 queries , Gzip On, MemCached On.

    Powered by Discuz! X3.4

    © 2001-2013 Comsenz Inc.

    快速回复 返回顶部 返回列表