快捷导航
查看: 46|回复: 12

[记录] 纽约时报头版内幕/头版:纽约时报的一年 Page.One.Inside.the.New.York.Times.2011.1080p.BluRay.x264-PS

[复制链接]
  • TA的每日心情

    6 天前
  • 签到天数: 96 天

    [LV.6]常住居民II

    2082

    主题

    2178

    帖子

    4362

    积分

    发布组

    积分
    4362
    发表于 6 天前 | 显示全部楼层 |阅读模式
    1. 帖子完整标题:纽约时报头版内幕/头版:纽约时报的一年 Page.One.Inside.the.New.York.Times.2011.1080p.BluRay.x264-PSYCHD 6.56GB
    复制代码
    纽约时报头版内幕/头版:纽约时报的一年 Page.One.Inside.the.New.York.Times.2011.1080p.BluRay.x264-PS-1.png


    译  名 纽约时报头版内幕/头版:纽约时报的一年/第一页:纽约时报的一年
    片  名 Page One: Inside the New York Times
    年  代 2011
    产  地 美国
    类  别 纪录片
    语  言 英语
    上映日期 2011-01(美国圣丹斯电影节)
    IMDb评分  6.9/10 from 3245 users
    IMDb链接  https://www.imdb.com/title/tt1787777/
    豆瓣评分 8.0/10 from 1913 users
    豆瓣链接 https://movie.douban.com/subject/5385604/
    片  长 92分钟
    主  演 David Carr
           朱利安·阿桑奇 Julian Assange
           鲁伯特·默多克 Rupert Murdoch
           史蒂夫·乔布斯 Steve Jobs
           吉米·多纳尔·威尔士 Jimmy Wales

    标  签 纪录片 | 美国 | 纽约时报 | 传媒 | Documentary | 2011 | 美国电影 | 媒体

    简  介

      《头版内幕》进入了对于外人来说充满着神秘色彩的《纽约时报》的编辑部,为观众介绍了一个成熟的媒体内部的运作环境和工作体系。影片曾参加今年的圣丹斯电影节。

    获奖情况

      第17届美国评论家选择电影奖 ?(2012)
      最佳纪录片(提名)
      
      第16届圣地亚哥影评人协会奖 ?(2011)
      最佳纪录片(提名)
      
      第11届凤凰城影评人协会奖 ?(2011)
      最佳纪录片
    1. Video
    2. ID                                       : 1
    3. Format                                   : AVC
    4. Format/Info                              : Advanced Video Codec
    5. Format profile                           : High@L4
    6. Format settings                          : CABAC / 4 Ref Frames
    7. Format settings, CABAC                   : Yes
    8. Format settings, ReFrames                : 4 frames
    9. Codec ID                                 : V_MPEG4/ISO/AVC
    10. Duration                                 : 1 h 31 min
    11. Bit rate                                 : 8 736 kb/s
    12. Width                                    : 1 920 pixels
    13. Height                                   : 1 080 pixels
    14. Display aspect ratio                     : 16:9
    15. Frame rate mode                          : Constant
    16. Frame rate                               : 23.976 (24000/1001/189150) FPS
    17. Color space                              : YUV
    18. Chroma subsampling                       : 4:2:0
    19. Bit depth                                : 8 bits
    20. Scan type                                : Progressive
    21. Bits/(Pixel*Frame)                       : 0.176
    22. Stream size                              : 5.46 GiB (83%)
    23. Writing library                          : x264 core 118 r2085 8a62835
    24. Encoding settings                        : cabac=1 / ref=4 / deblock=1:0:0 / analyse=0x3:0x113 / me=umh / subme=8 / psy=1 / psy_rd=1.00:0.00 / mixed_ref=1 / me_range=16 / chroma_me=1 / trellis=1 / 8x8dct=1 / cqm=0 / deadzone=21,11 / fast_pskip=1 / chroma_qp_offset=-2 / threads=12 / sliced_threads=0 / nr=0 / decimate=1 / interlaced=0 / bluray_compat=0 / constrained_intra=0 / bframes=3 / b_pyramid=2 / b_adapt=2 / b_bias=0 / direct=3 / weightb=1 / open_gop=0 / weightp=2 / keyint=240 / keyint_min=24 / scenecut=40 / intra_refresh=0 / rc_lookahead=50 / rc=2pass / mbtree=1 / bitrate=8736 / ratetol=1.0 / qcomp=0.60 / qpmin=0 / qpmax=69 / qpstep=4 / cplxblur=20.0 / qblur=0.5 / ip_ratio=1.40 / aq=1:1.00
    25. Language                                 : English
    26. Default                                  : Yes
    27. Forced                                   : No

    28. Audio
    29. ID                                       : 2
    30. Format                                   : DTS
    31. Format/Info                              : Digital Theater Systems
    32. Codec ID                                 : A_DTS
    33. Duration                                 : 1 h 31 min
    34. Bit rate mode                            : Constant
    35. Bit rate                                 : 1 509 kb/s
    36. Channel(s)                               : 6 channels
    37. Channel positions                        : Front: L C R, Side: L R, LFE
    38. Sampling rate                            : 48.0 kHz
    39. Frame rate                               : 93.750 FPS (512 SPF)
    40. Bit depth                                : 24 bits
    41. Compression mode                         : Lossy
    42. Stream size                              : 989 MiB (15%)
    43. Language                                 : English
    44. Default                                  : Yes
    45. Forced                                   : No

    46. Text
    47. ID                                       : 3
    48. Format                                   : UTF-8
    49. Codec ID                                 : S_TEXT/UTF8
    50. Codec ID/Info                            : UTF-8 Plain Text
    51. Language                                 : English
    52. Default                                  : No
    53. Forced                                   : No

    54. Menu
    55. 00:00:00.000                             : en:00:00:00.000
    56. 00:05:47.806                             : en:00:05:47.806
    57. 00:12:34.963                             : en:00:12:34.963
    58. 00:21:14.982                             : en:00:21:14.982
    59. 00:27:25.102                             : en:00:27:25.102
    60. 00:35:42.640                             : en:00:35:42.640
    61. 00:41:28.611                             : en:00:41:28.611
    62. 00:50:15.846                             : en:00:50:15.846
    63. 00:59:04.833                             : en:00:59:04.833
    64. 01:07:41.057                             : en:01:07:41.057
    65. 01:16:52.775                             : en:01:16:52.775
    66. 01:27:29.661                             : en:01:27:29.661
    复制代码

    纽约时报头版内幕/头版:纽约时报的一年 Page.One.Inside.the.New.York.Times.2011.1080p.BluRay.x264-PS-2.png
    纽约时报头版内幕/头版:纽约时报的一年 Page.One.Inside.the.New.York.Times.2011.1080p.BluRay.x264-PS-3.png
    纽约时报头版内幕/头版:纽约时报的一年 Page.One.Inside.the.New.York.Times.2011.1080p.BluRay.x264-PS-4.png
    本帖隐藏的内容需要VIP会员才可浏览,您需要升级才可浏览,点击这里升级VIP





    回复

    使用道具 举报

    该用户从未签到

    0

    主题

    2240

    帖子

    1693

    积分

    金牌会员

    Rank: 6Rank: 6

    积分
    1693
    发表于 6 天前 | 显示全部楼层
    感谢楼主的无私分享!要想蓝光高清电影网好 就靠你我他
    回复 支持 反对

    使用道具 举报

    该用户从未签到

    0

    主题

    1072

    帖子

    626

    积分

    高级会员

    Rank: 4

    积分
    626
    发表于 6 天前 | 显示全部楼层

    是个好电影!必须要看的!多谢分享!
    回复 支持 反对

    使用道具 举报

    该用户从未签到

    0

    主题

    4430

    帖子

    3830

    积分

    论坛元老

    Rank: 8Rank: 8

    积分
    3830
    发表于 6 天前 | 显示全部楼层
    回复 支持 反对

    使用道具 举报

    该用户从未签到

    0

    主题

    7857

    帖子

    7078

    积分

    论坛元老

    Rank: 8Rank: 8

    积分
    7078
    发表于 5 天前 | 显示全部楼层
    回复 支持 反对

    使用道具 举报

    该用户从未签到

    0

    主题

    3445

    帖子

    2405

    积分

    金牌会员

    Rank: 6Rank: 6

    积分
    2405
    发表于 5 天前 | 显示全部楼层
    楼主太厉害了!楼主,电影应该很好看我觉得蓝光电影下载真是个好地方!
    回复 支持 反对

    使用道具 举报

    该用户从未签到

    0

    主题

    3445

    帖子

    2405

    积分

    金牌会员

    Rank: 6Rank: 6

    积分
    2405
    发表于 5 天前 | 显示全部楼层
    回复 支持 反对

    使用道具 举报

    该用户从未签到

    0

    主题

    3445

    帖子

    2405

    积分

    金牌会员

    Rank: 6Rank: 6

    积分
    2405
    发表于 5 天前 | 显示全部楼层
    这个帖子不回对不起自己!我想我是一天也不能离开蓝光电影网
    回复 支持 反对

    使用道具 举报

    该用户从未签到

    0

    主题

    3万

    帖子

    2万

    积分

    论坛元老

    Rank: 8Rank: 8

    积分
    28148
    发表于 5 天前 | 显示全部楼层
    回复 支持 反对

    使用道具 举报

    该用户从未签到

    0

    主题

    2万

    帖子

    1万

    积分

    论坛元老

    Rank: 8Rank: 8

    积分
    18385
    发表于 4 天前 | 显示全部楼层
    回复 支持 反对

    使用道具 举报

    懒得打字嘛,点击右侧快捷回复 【右侧内容,后台自定义】
    您需要登录后才可以回帖 登录 | 立即注册

    本版积分规则

    郑重声明,本站所有作品片源来自互联网公开渠道,均为网友上传交流学习,影视版权均归原电影公司所有,如有侵犯版权,请与 2322694662@qq.com 联系,我们将立即删除。

    小黑屋|手机版|Archiver|百度统计|投诉|蓝光电影下载

    GMT+8, 2021-10-17 11:35 , Processed in 0.143393 second(s), 25 queries , Gzip On, MemCached On.

    Powered by Discuz! X3.4

    © 2001-2013 Comsenz Inc.

    快速回复 返回顶部 返回列表