快捷导航
查看: 364|回复: 13

[恐怖] 地狱城/鬼屋魅影之死亡图 Kolobos.1999.1080p.BluRay.x264-SPOOKS 6.56GB

[复制链接]
  • TA的每日心情
    开心
    2020-2-15 21:32
  • 签到天数: 240 天

    [LV.8]以坛为家I

    1万

    主题

    1万

    帖子

    6万

    积分

    管理员

    蓝光君

    Rank: 9Rank: 9Rank: 9

    积分
    67808

    活跃会员热心会员推广达人突出贡献优秀版主荣誉管理论坛元老

    QQ
    发表于 2019-5-26 22:37:11 | 显示全部楼层 |阅读模式


    地狱城/鬼屋魅影之死亡图 Kolobos.1999.1080p.BluRay.x264-SPOOKS 6.56GB-1.png

    译  名 地狱城 / 鬼屋魅影之死亡图
    片  名 Kolobos
    年  代 1999
    产  地 美国
    类  别 悬疑 / 惊悚 / 恐怖
    语  言 英语
    上映日期 1999-09-28
    IMDb评分  5.3/10 from 1435 users
    IMDb链接  http://www.imdb.com/title/tt0151239
    豆瓣评分 6.2/10 from 58 users
    豆瓣链接 https://movie.douban.com/subject/1306797/
    片  长 Germany: 84 分钟
    导  演 Daniel Liatowitsch / David Todd Ocvirk
    编  剧 Daniel Liatowitsch / David Todd Ocvirk / Nne Ebong
    主  演 Amy Weber


    标  签 恐怖 | 悬疑 | 惊悚 | 血腥 | 美国电影 | 美国 | 犯罪 | 恐怖电影

    简  介  

      凯拉因脸重伤而被送到医院,她告诉警方,她跟汤姆,盖瑞,蒂娜及艾丽卡五人看到分类广告而前往一座豪宅进行实验,但没想到这是一个陷阱,陆续有人遭到杀害,他们死亡的样子就跟凯拉画中的人物一样,而凯拉不断地看到异象,存活下来的人也彼此心生怀疑,最后只有凯拉一个人活了下来.... 但是警方查证过她的说法却毫无所获,认为凯拉是精神异常而编出这些谎言,事实上凯拉有著双重人格,而这一切都是出自另一个她之手。

    Video
    ID                                       : 1
    Format                                   : AVC
    Format/Info                              : Advanced Video Codec
    Format profile                           : [email protected]
    Format settings                          : CABAC / 4 Ref Frames
    Format settings, CABAC                   : Yes
    Format settings, ReFrames                : 4 frames
    Codec ID                                 : V_MPEG4/ISO/AVC
    Duration                                 : 1 h 27 min
    Bit rate                                 : 9 256 kb/s
    Width                                    : 1 920 pixels
    Height                                   : 1 040 pixels
    Display aspect ratio                     : 1.85:1
    Frame rate mode                          : Constant
    Frame rate                               : 23.976 (24000/1001) FPS
    Color space                              : YUV
    Chroma subsampling                       : 4:2:0
    Bit depth                                : 8 bits
    Scan type                                : Progressive
    Bits/(Pixel*Frame)                       : 0.193
    Stream size                              : 5.63 GiB (86%)
    Writing library                          : x264 core 157 r2969 d4099dd
    Encoding settings                        : cabac=1 / ref=4 / deblock=1:-3:-3 / analyse=0x3:0x133 / me=umh / subme=9 / psy=1 / psy_rd=1.00:0.00 / mixed_ref=1 / me_range=24 / chroma_me=1 / trellis=1 / 8x8dct=1 / cqm=0 / deadzone=21,11 / fast_pskip=0 / chroma_qp_offset=-2 / threads=24 / lookahead_threads=4 / sliced_threads=0 / nr=0 / decimate=1 / interlaced=0 / bluray_compat=0 / constrained_intra=0 / bframes=8 / b_pyramid=2 / b_adapt=2 / b_bias=0 / direct=3 / weightb=1 / open_gop=0 / weightp=2 / keyint=250 / keyint_min=23 / scenecut=40 / intra_refresh=0 / rc_lookahead=60 / rc=2pass / mbtree=1 / bitrate=9256 / ratetol=1.0 / qcomp=0.60 / qpmin=0 / qpmax=69 / qpstep=4 / cplxblur=20.0 / qblur=0.5 / vbv_maxrate=62500 / vbv_bufsize=78125 / nal_hrd=none / filler=0 / ip_ratio=1.40 / aq=1:1.00
    Default                                  : Yes
    Forced                                   : No

    Audio
    ID                                       : 2
    Format                                   : DTS
    Format/Info                              : Digital Theater Systems
    Codec ID                                 : A_DTS
    Duration                                 : 1 h 27 min
    Bit rate mode                            : Constant
    Bit rate                                 : 1 509 kb/s
    Channel(s)                               : 6 channels
    Channel layout                           : C L R Ls Rs LFE
    Sampling rate                            : 48.0 kHz
    Frame rate                               : 93.750 FPS (512 SPF)
    Bit depth                                : 24 bits
    Compression mode                         : Lossy
    Stream size                              : 941 MiB (14%)
    Language                                 : English
    Default                                  : Yes
    Forced                                   : No
    地狱城/鬼屋魅影之死亡图 Kolobos.1999.1080p.BluRay.x264-SPOOKS 6.56GB-2.png

    游客,如果您要查看本帖隐藏内容请回复



    大中午的快困死蓝光君了
    回复

    使用道具 举报

    该用户从未签到

    0

    主题

    777

    帖子

    824

    积分

    高级会员

    Rank: 4

    积分
    824
    发表于 2019-6-8 00:31:45 | 显示全部楼层
    回复 支持 反对

    使用道具 举报

    该用户从未签到

    0

    主题

    214

    帖子

    153

    积分

    注册会员

    Rank: 2

    积分
    153
    发表于 2019-6-15 20:30:54 | 显示全部楼层
    回复 支持 反对

    使用道具 举报

    该用户从未签到

    0

    主题

    521

    帖子

    18

    积分

    新手上路

    Rank: 1

    积分
    18
    发表于 2019-6-18 04:43:56 | 显示全部楼层
    回复 支持 反对

    使用道具 举报

    该用户从未签到

    0

    主题

    3193

    帖子

    3191

    积分

    论坛元老

    Rank: 8Rank: 8

    积分
    3191
    发表于 2019-6-21 19:56:24 | 显示全部楼层
    回复 支持 反对

    使用道具 举报

    该用户从未签到

    0

    主题

    6743

    帖子

    6746

    积分

    论坛元老

    Rank: 8Rank: 8

    积分
    6746
    发表于 2019-7-18 05:34:58 | 显示全部楼层
    回复 支持 反对

    使用道具 举报

    该用户从未签到

    0

    主题

    1097

    帖子

    1107

    积分

    金牌会员

    Rank: 6Rank: 6

    积分
    1107
    发表于 2019-7-25 23:53:14 | 显示全部楼层
    回复 支持 反对

    使用道具 举报

    该用户从未签到

    0

    主题

    6743

    帖子

    6746

    积分

    论坛元老

    Rank: 8Rank: 8

    积分
    6746
    发表于 2019-7-26 03:36:33 | 显示全部楼层
    这个帖子不回对不起自己!我想我是一天也不能离开蓝光电影网
    回复 支持 反对

    使用道具 举报

    该用户从未签到

    0

    主题

    6743

    帖子

    6746

    积分

    论坛元老

    Rank: 8Rank: 8

    积分
    6746
    发表于 2019-8-30 09:51:28 | 显示全部楼层
    楼主太厉害了!楼主,电影应该很好看我觉得蓝光电影下载真是个好地方!
    回复 支持 反对

    使用道具 举报

    该用户从未签到

    0

    主题

    3193

    帖子

    3191

    积分

    论坛元老

    Rank: 8Rank: 8

    积分
    3191
    发表于 2019-9-23 02:00:01 | 显示全部楼层

    非常精彩的电影,下来收藏,感谢楼主
    回复 支持 反对

    使用道具 举报

    懒得打字嘛,点击右侧快捷回复 【右侧内容,后台自定义】
    您需要登录后才可以回帖 登录 | 立即注册

    本版积分规则

    郑重声明,本站所有作品片源来自互联网公开渠道,均为网友上传交流学习,影视版权均归原电影公司所有,如有侵犯版权,请与 2322694662@qq.com 联系,我们将立即删除。

    小黑屋|手机版|Archiver|百度统计|投诉|蓝光电影下载

    GMT+8, 2021-1-19 01:07 , Processed in 0.055546 second(s), 19 queries , Gzip On, MemCached On.

    Powered by Discuz! X3.4

    © 2001-2013 Comsenz Inc.

    快速回复 返回顶部 返回列表