快捷导航
查看: 2376|回复: 27

龙虎少年队2 22.Jump.Street.2014.2160p.BluRay.REMUX.HEVC.DTS-HD.MA.TrueHD.7.1.Atmos-FG

[复制链接]
  • TA的每日心情

    2022-11-2 18:54
  • 签到天数: 127 天

    [LV.7]常住居民III

    2480

    主题

    127

    回帖

    5646

    积分

    发布组

    积分
    5646
    发表于 2021-11-11 08:55:14 | 显示全部楼层 |阅读模式
    1. 帖子完整标题:龙虎少年队2 22.Jump.Street.2014.2160p.BluRay.REMUX.HEVC.DTS-HD.MA.TrueHD.7.1.Atmos-FGT 65.23GB
    复制代码
    龙虎少年队2 22.Jump.Street.2014.2160p.BluRay.REMUX.HEVC.DTS-HD.MA.TrueHD.7.1.Atmos-FG-1.jpeg


    译  名 龙虎少年队2/21 Jump Street 2/囧探出更(港)/龙虎少年队:童颜巨捕(台)
    片  名 22 Jump Street
    年  代 2014
    产  地 美国
    类  别 喜剧 / 动作 / 犯罪
    语  言 英语
    上映日期 2014-06-13(美国)
    IMDb评分  7/10 from 339669 users
    IMDb链接  https://www.imdb.com/title/tt2294449/
    豆瓣评分 6.9/10 from 22990 users
    豆瓣链接 https://movie.douban.com/subject/10546666/
    片  长 112分钟
    导  演 菲尔·罗德 Phil Lord / 克里斯托弗·米勒 Christopher Miller
    编  剧 迈克尔·巴考尔 Michael Bacall / 奥伦·尤济尔 Oren Uziel / 罗德尼·罗斯曼 Rodney Rothman / 乔纳·希尔 Jonah Hill
    主  演 乔纳·希尔 Jonah Hill
           查宁·塔图姆 Channing Tatum
           彼得·斯特曼 Peter Stormare
           怀亚特·罗素 Wyatt Russell
           艾波·斯蒂文斯 Amber Stevens
           吉莉恩·贝尔 Jillian Bell
           艾斯·库珀 Ice Cube
           尼克·奥弗曼 Nick Offerman
           吉米·塔特罗 Jimmy Tatro
           卡罗琳·阿隆 Caroline Aaron
           克雷格·罗伯兹 Craig Roberts
           马克·埃文·杰克逊 Marc Evan Jackson
           乔·克里斯特 Joe Chrest
           埃迪·J.费尔南德斯 Eddie J. Fernandez
           泰勒·福雷斯特 Tyler Forrest
           罗伯·里格尔 Rob Riggle
           徐海为 Haiwei Xu
           戴夫·弗兰科 Dave Franco
           德克斯·弗拉姆 Dax Flame
           理查德·格里克 Richard Grieco
           奎恩·拉提法 Queen Latifah
           库尔特·克劳斯 Kurt Krause
           托比·尼克尔斯 Toby Nichols
           阮春智 Dustin Nguyen
           塞斯·罗根 Seth Rogen
           安娜·法瑞丝 Anna Faris

    标  签 喜剧 | 美国 | 动作 | 搞笑 | 2014 | 犯罪 | 好基友 | 校园

    简  介

      故事紧接着上一部继续发展。延科(查宁·塔图姆 Channing Tatum 饰)和施密特(乔纳·希尔 Jonah Hill 饰)好不容易从高中“顺利毕业”,等待着他们的,却是又一轮卧底行动,这一次,他们要挑战的对象是“大学”。和高中相比,大学里人际关系的复杂程度和课业难度都要更上一层楼,这一次,兄弟两人能够顺利完成任务吗?
      
      在学园中,延科加入了校足球队,结识了一帮志同道合的好友,与此同时,施密特选择就读艺术系,与古灵精怪的玛雅(安珀·史蒂芬斯 Amber Stevens 饰)发生了一段浪漫轶事。然而,丰富精彩的大学生活令密不可分的延科和施密特之间产生了裂痕,这裂痕之巨大很可能导致患难与共的两人最终分道扬镳。

    获奖情况

      第16届美国青少年选择奖 ?(2014)
      最佳突破表演电影新星(提名) 怀亚特·罗素
      最佳银幕拍档(提名) 查宁·塔图姆?/?乔纳·希尔
      ChoiceMovie:HissyFit 乔纳·希尔
      ChoiceMovie:HissyFit(提名) 艾斯·库珀
      最佳暑期电影
      最佳暑期电影明星 查宁·塔图姆
      最佳暑期电影明星(提名) 乔纳·希尔
    1. Video
    2. ID                                       : 1
    3. ID in the original source medium         : 4113 (0x1011)
    4. Format                                   : HEVC
    5. Format/Info                              : High Efficiency Video Coding
    6. Format profile                           : Main High@L4@High
    7. HDR format                               : SMPTE ST 2086, HDR10 compatible
    8. Codec ID                                 : V_MPEGH/ISO/HEVC
    9. Duration                                 : 1 h 51 min
    10. Bit rate                                 : 56.5 Mb/s
    11. Width                                    : 3 840 pixels
    12. Height                                   : 2 160 pixels
    13. Display aspect ratio                     : 16:9
    14. Frame rate mode                          : Constant
    15. Frame rate                               : 23.976 (24000/1001/189150) FPS
    16. Color space                              : YUV
    17. Chroma subsampling                       : 4:2:0 (Type 2)
    18. Bit depth                                : 10 bits
    19. Bits/(Pixel*Frame)                       : 0.284
    20. Stream size                              : 44.2 GiB (68%)
    21. Title                                    : 22.Jump.Street.2014.2160p.BluRay.REMUX.HEVC.DTS-HD.MA.TrueHD.7.1.Atmos-FGT
    22. Language                                 : English
    23. Default                                  : No
    24. Forced                                   : No
    25. Color range                              : Limited
    26. Color primaries                          : BT.2020
    27. Transfer characteristics                 : PQ
    28. Matrix coefficients                      : BT.2020 non-constant
    29. Mastering display color primaries        : Display P3
    30. Mastering display luminance              : min: 0.0050 cd/m2, max: 4000 cd/m2
    31. Maximum Content Light Level              : 3629 cd/m2
    32. Maximum Frame-Average Light Level        : 527 cd/m2
    33. Original source medium                   : Blu-ray

    34. Audio #1
    35. ID                                       : 2
    36. ID in the original source medium         : 4352 (0x1100)
    37. Format                                   : MLP FBA 16-ch
    38. Format/Info                              : Meridian Lossless Packing FBA with 16-channel presentation
    39. Commercial name                          : Dolby TrueHD with Dolby Atmos
    40. Codec ID                                 : A_TRUEHD
    41. Duration                                 : 1 h 51 min
    42. Bit rate mode                            : Variable
    43. Bit rate                                 : 2 725 kb/s
    44. Maximum bit rate                         : 3 879 kb/s
    45. Channel(s)                               : 8 channels
    46. Channel layout                           : L R C LFE Ls Rs Lb Rb
    47. Sampling rate                            : 48.0 kHz
    48. Frame rate                               : 1 200.000 FPS (40 SPF)
    49. Compression mode                         : Lossless
    50. Stream size                              : 2.13 GiB (3%)
    51. Title                                    : 22.Jump.Street.2014.2160p.BluRay.REMUX.HEVC.DTS-HD.MA.TrueHD.7.1.Atmos-FGT
    52. Language                                 : English
    53. Default                                  : Yes
    54. Forced                                   : No
    55. Original source medium                   : Blu-ray
    56. Number of dynamic objects                : 11
    57. Bed channel count                        : 1 channel
    58. Bed channel configuration                : LFE

    59. Audio #2
    60. ID                                       : 3
    61. Format                                   : DTS XLL
    62. Format/Info                              : Digital Theater Systems
    63. Commercial name                          : DTS-HD Master Audio
    64. Codec ID                                 : A_DTS
    65. Duration                                 : 1 h 51 min
    66. Bit rate mode                            : Variable
    67. Bit rate                                 : 4 086 kb/s
    68. Channel(s)                               : 8 channels
    69. Channel layout                           : C L R LFE Lb Rb Lss Rss
    70. Sampling rate                            : 48.0 kHz
    71. Frame rate                               : 93.750 FPS (512 SPF)
    72. Bit depth                                : 24 bits
    73. Compression mode                         : Lossless
    74. Stream size                              : 3.19 GiB (5%)
    75. Title                                    : 22.Jump.Street.2014.2160p.BluRay.REMUX.HEVC.DTS-HD.MA.TrueHD.7.1.Atmos-FGT
    76. Language                                 : English
    77. Default                                  : No
    78. Forced                                   : No

    79. Audio #3
    80. ID                                       : 4
    81. ID in the original source medium         : 4352 (0x1100)
    82. Format                                   : AC-3
    83. Format/Info                              : Audio Coding 3
    84. Commercial name                          : Dolby Digital
    85. Codec ID                                 : A_AC3
    86. Duration                                 : 1 h 51 min
    87. Bit rate mode                            : Constant
    88. Bit rate                                 : 640 kb/s
    89. Channel(s)                               : 6 channels
    90. Channel layout                           : L R C LFE Ls Rs
    91. Sampling rate                            : 48.0 kHz
    92. Frame rate                               : 31.250 FPS (1536 SPF)
    93. Compression mode                         : Lossy
    94. Stream size                              : 512 MiB (1%)
    95. Title                                    : 22.Jump.Street.2014.2160p.BluRay.REMUX.HEVC.DTS-HD.MA.TrueHD.7.1.Atmos-FGT
    96. Language                                 : English
    97. Service kind                             : Complete Main
    98. Default                                  : No
    99. Forced                                   : No
    100. Original source medium                   : Blu-ray

    101. Audio #4
    102. ID                                       : 5
    103. ID in the original source medium         : 4354 (0x1102)
    104. Format                                   : AC-3
    105. Format/Info                              : Audio Coding 3
    106. Commercial name                          : Dolby Digital
    107. Codec ID                                 : A_AC3
    108. Duration                                 : 1 h 51 min
    109. Bit rate mode                            : Constant
    110. Bit rate                                 : 640 kb/s
    111. Channel(s)                               : 6 channels
    112. Channel layout                           : L R C LFE Ls Rs
    113. Sampling rate                            : 48.0 kHz
    114. Frame rate                               : 31.250 FPS (1536 SPF)
    115. Compression mode                         : Lossy
    116. Stream size                              : 512 MiB (1%)
    117. Title                                    : 22.Jump.Street.2014.2160p.BluRay.REMUX.HEVC.DTS-HD.MA.TrueHD.7.1.Atmos-FGT
    118. Language                                 : English
    119. Service kind                             : Complete Main
    120. Default                                  : No
    121. Forced                                   : No
    122. Original source medium                   : Blu-ray

    123. Audio #5
    124. ID                                       : 6
    125. ID in the original source medium         : 4355 (0x1103)
    126. Format                                   : AC-3
    127. Format/Info                              : Audio Coding 3
    128. Commercial name                          : Dolby Digital
    129. Codec ID                                 : A_AC3
    130. Duration                                 : 1 h 51 min
    131. Bit rate mode                            : Constant
    132. Bit rate                                 : 640 kb/s
    133. Channel(s)                               : 6 channels
    134. Channel layout                           : L R C LFE Ls Rs
    135. Sampling rate                            : 48.0 kHz
    136. Frame rate                               : 31.250 FPS (1536 SPF)
    137. Compression mode                         : Lossy
    138. Stream size                              : 512 MiB (1%)
    139. Title                                    : 22.Jump.Street.2014.2160p.BluRay.REMUX.HEVC.DTS-HD.MA.TrueHD.7.1.Atmos-FGT
    140. Language                                 : English
    141. Service kind                             : Complete Main
    142. Default                                  : No
    143. Forced                                   : No
    144. Original source medium                   : Blu-ray

    145. Audio #6
    146. ID                                       : 7
    147. ID in the original source medium         : 4356 (0x1104)
    148. Format                                   : AC-3
    149. Format/Info                              : Audio Coding 3
    150. Commercial name                          : Dolby Digital
    151. Codec ID                                 : A_AC3
    152. Duration                                 : 1 h 51 min
    153. Bit rate mode                            : Constant
    154. Bit rate                                 : 640 kb/s
    155. Channel(s)                               : 6 channels
    156. Channel layout                           : L R C LFE Ls Rs
    157. Sampling rate                            : 48.0 kHz
    158. Frame rate                               : 31.250 FPS (1536 SPF)
    159. Compression mode                         : Lossy
    160. Stream size                              : 512 MiB (1%)
    161. Title                                    : 22.Jump.Street.2014.2160p.BluRay.REMUX.HEVC.DTS-HD.MA.TrueHD.7.1.Atmos-FGT
    162. Language                                 : Czech
    163. Service kind                             : Complete Main
    164. Default                                  : No
    165. Forced                                   : No
    166. Original source medium                   : Blu-ray

    167. Audio #7
    168. ID                                       : 8
    169. ID in the original source medium         : 4357 (0x1105)
    170. Format                                   : DTS XLL
    171. Format/Info                              : Digital Theater Systems
    172. Commercial name                          : DTS-HD Master Audio
    173. Codec ID                                 : A_DTS
    174. Duration                                 : 1 h 51 min
    175. Bit rate mode                            : Variable
    176. Bit rate                                 : 2 319 kb/s
    177. Channel(s)                               : 6 channels
    178. Channel layout                           : C L R Ls Rs LFE
    179. Sampling rate                            : 48.0 kHz
    180. Frame rate                               : 93.750 FPS (512 SPF)
    181. Bit depth                                : 16 bits
    182. Compression mode                         : Lossless
    183. Stream size                              : 1.81 GiB (3%)
    184. Title                                    : 22.Jump.Street.2014.2160p.BluRay.REMUX.HEVC.DTS-HD.MA.TrueHD.7.1.Atmos-FGT
    185. Language                                 : French
    186. Default                                  : No
    187. Forced                                   : No
    188. Original source medium                   : Blu-ray

    189. Audio #8
    190. ID                                       : 9
    191. ID in the original source medium         : 4358 (0x1106)
    192. Format                                   : AC-3
    193. Format/Info                              : Audio Coding 3
    194. Commercial name                          : Dolby Digital
    195. Codec ID                                 : A_AC3
    196. Duration                                 : 1 h 51 min
    197. Bit rate mode                            : Constant
    198. Bit rate                                 : 640 kb/s
    199. Channel(s)                               : 6 channels
    200. Channel layout                           : L R C LFE Ls Rs
    201. Sampling rate                            : 48.0 kHz
    202. Frame rate                               : 31.250 FPS (1536 SPF)
    203. Compression mode                         : Lossy
    204. Stream size                              : 512 MiB (1%)
    205. Title                                    : 22.Jump.Street.2014.2160p.BluRay.REMUX.HEVC.DTS-HD.MA.TrueHD.7.1.Atmos-FGT
    206. Language                                 : French
    207. Service kind                             : Complete Main
    208. Default                                  : No
    209. Forced                                   : No
    210. Original source medium                   : Blu-ray

    211. Audio #9
    212. ID                                       : 10
    213. ID in the original source medium         : 4359 (0x1107)
    214. Format                                   : DTS XLL
    215. Format/Info                              : Digital Theater Systems
    216. Commercial name                          : DTS-HD Master Audio
    217. Codec ID                                 : A_DTS
    218. Duration                                 : 1 h 51 min
    219. Bit rate mode                            : Variable
    220. Bit rate                                 : 2 314 kb/s
    221. Channel(s)                               : 6 channels
    222. Channel layout                           : C L R Ls Rs LFE
    223. Sampling rate                            : 48.0 kHz
    224. Frame rate                               : 93.750 FPS (512 SPF)
    225. Bit depth                                : 16 bits
    226. Compression mode                         : Lossless
    227. Stream size                              : 1.81 GiB (3%)
    228. Title                                    : 22.Jump.Street.2014.2160p.BluRay.REMUX.HEVC.DTS-HD.MA.TrueHD.7.1.Atmos-FGT
    229. Language                                 : German
    230. Default                                  : No
    231. Forced                                   : No
    232. Original source medium                   : Blu-ray

    233. Audio #10
    234. ID                                       : 11
    235. ID in the original source medium         : 4360 (0x1108)
    236. Format                                   : AC-3
    237. Format/Info                              : Audio Coding 3
    238. Commercial name                          : Dolby Digital
    239. Codec ID                                 : A_AC3
    240. Duration                                 : 1 h 51 min
    241. Bit rate mode                            : Constant
    242. Bit rate                                 : 640 kb/s
    243. Channel(s)                               : 6 channels
    244. Channel layout                           : L R C LFE Ls Rs
    245. Sampling rate                            : 48.0 kHz
    246. Frame rate                               : 31.250 FPS (1536 SPF)
    247. Compression mode                         : Lossy
    248. Stream size                              : 512 MiB (1%)
    249. Title                                    : 22.Jump.Street.2014.2160p.BluRay.REMUX.HEVC.DTS-HD.MA.TrueHD.7.1.Atmos-FGT
    250. Language                                 : Hungarian
    251. Service kind                             : Complete Main
    252. Default                                  : No
    253. Forced                                   : No
    254. Original source medium                   : Blu-ray

    255. Audio #11
    256. ID                                       : 12
    257. ID in the original source medium         : 4361 (0x1109)
    258. Format                                   : DTS XLL
    259. Format/Info                              : Digital Theater Systems
    260. Commercial name                          : DTS-HD Master Audio
    261. Codec ID                                 : A_DTS
    262. Duration                                 : 1 h 51 min
    263. Bit rate mode                            : Variable
    264. Bit rate                                 : 2 303 kb/s
    265. Channel(s)                               : 6 channels
    266. Channel layout                           : C L R Ls Rs LFE
    267. Sampling rate                            : 48.0 kHz
    268. Frame rate                               : 93.750 FPS (512 SPF)
    269. Bit depth                                : 16 bits
    270. Compression mode                         : Lossless
    271. Stream size                              : 1.80 GiB (3%)
    272. Title                                    : 22.Jump.Street.2014.2160p.BluRay.REMUX.HEVC.DTS-HD.MA.TrueHD.7.1.Atmos-FGT
    273. Language                                 : Italian
    274. Default                                  : No
    275. Forced                                   : No
    276. Original source medium                   : Blu-ray

    277. Audio #12
    278. ID                                       : 13
    279. ID in the original source medium         : 4362 (0x110A)
    280. Format                                   : AC-3
    281. Format/Info                              : Audio Coding 3
    282. Commercial name                          : Dolby Digital
    283. Codec ID                                 : A_AC3
    284. Duration                                 : 1 h 51 min
    285. Bit rate mode                            : Constant
    286. Bit rate                                 : 640 kb/s
    287. Channel(s)                               : 6 channels
    288. Channel layout                           : L R C LFE Ls Rs
    289. Sampling rate                            : 48.0 kHz
    290. Frame rate                               : 31.250 FPS (1536 SPF)
    291. Compression mode                         : Lossy
    292. Stream size                              : 512 MiB (1%)
    293. Title                                    : 22.Jump.Street.2014.2160p.BluRay.REMUX.HEVC.DTS-HD.MA.TrueHD.7.1.Atmos-FGT
    294. Language                                 : Polish
    295. Service kind                             : Complete Main
    296. Default                                  : No
    297. Forced                                   : No
    298. Original source medium                   : Blu-ray

    299. Audio #13
    300. ID                                       : 14
    301. ID in the original source medium         : 4363 (0x110B)
    302. Format                                   : DTS XLL
    303. Format/Info                              : Digital Theater Systems
    304. Commercial name                          : DTS-HD Master Audio
    305. Codec ID                                 : A_DTS
    306. Duration                                 : 1 h 51 min
    307. Bit rate mode                            : Variable
    308. Bit rate                                 : 2 363 kb/s
    309. Channel(s)                               : 6 channels
    310. Channel layout                           : C L R Ls Rs LFE
    311. Sampling rate                            : 48.0 kHz
    312. Frame rate                               : 93.750 FPS (512 SPF)
    313. Bit depth                                : 16 bits
    314. Compression mode                         : Lossless
    315. Stream size                              : 1.85 GiB (3%)
    316. Title                                    : 22.Jump.Street.2014.2160p.BluRay.REMUX.HEVC.DTS-HD.MA.TrueHD.7.1.Atmos-FGT
    317. Language                                 : Portuguese
    318. Default                                  : No
    319. Forced                                   : No
    320. Original source medium                   : Blu-ray

    321. Audio #14
    322. ID                                       : 15
    323. ID in the original source medium         : 4364 (0x110C)
    324. Format                                   : AC-3
    325. Format/Info                              : Audio Coding 3
    326. Commercial name                          : Dolby Digital
    327. Codec ID                                 : A_AC3
    328. Duration                                 : 1 h 51 min
    329. Bit rate mode                            : Constant
    330. Bit rate                                 : 640 kb/s
    331. Channel(s)                               : 6 channels
    332. Channel layout                           : L R C LFE Ls Rs
    333. Sampling rate                            : 48.0 kHz
    334. Frame rate                               : 31.250 FPS (1536 SPF)
    335. Compression mode                         : Lossy
    336. Stream size                              : 512 MiB (1%)
    337. Title                                    : 22.Jump.Street.2014.2160p.BluRay.REMUX.HEVC.DTS-HD.MA.TrueHD.7.1.Atmos-FGT
    338. Language                                 : Russian
    339. Service kind                             : Complete Main
    340. Default                                  : No
    341. Forced                                   : No
    342. Original source medium                   : Blu-ray

    343. Audio #15
    344. ID                                       : 16
    345. ID in the original source medium         : 4365 (0x110D)
    346. Format                                   : DTS XLL
    347. Format/Info                              : Digital Theater Systems
    348. Commercial name                          : DTS-HD Master Audio
    349. Codec ID                                 : A_DTS
    350. Duration                                 : 1 h 51 min
    351. Bit rate mode                            : Variable
    352. Bit rate                                 : 2 320 kb/s
    353. Channel(s)                               : 6 channels
    354. Channel layout                           : C L R Ls Rs LFE
    355. Sampling rate                            : 48.0 kHz
    356. Frame rate                               : 93.750 FPS (512 SPF)
    357. Bit depth                                : 16 bits
    358. Compression mode                         : Lossless
    359. Stream size                              : 1.81 GiB (3%)
    360. Title                                    : 22.Jump.Street.2014.2160p.BluRay.REMUX.HEVC.DTS-HD.MA.TrueHD.7.1.Atmos-FGT
    361. Language                                 : Spanish
    362. Default                                  : No
    363. Forced                                   : No
    364. Original source medium                   : Blu-ray

    365. Audio #16
    366. ID                                       : 17
    367. ID in the original source medium         : 4366 (0x110E)
    368. Format                                   : AC-3
    369. Format/Info                              : Audio Coding 3
    370. Commercial name                          : Dolby Digital
    371. Codec ID                                 : A_AC3
    372. Duration                                 : 1 h 51 min
    373. Bit rate mode                            : Constant
    374. Bit rate                                 : 640 kb/s
    375. Channel(s)                               : 6 channels
    376. Channel layout                           : L R C LFE Ls Rs
    377. Sampling rate                            : 48.0 kHz
    378. Frame rate                               : 31.250 FPS (1536 SPF)
    379. Compression mode                         : Lossy
    380. Stream size                              : 512 MiB (1%)
    381. Title                                    : 22.Jump.Street.2014.2160p.BluRay.REMUX.HEVC.DTS-HD.MA.TrueHD.7.1.Atmos-FGT
    382. Language                                 : Spanish
    383. Service kind                             : Complete Main
    384. Default                                  : No
    385. Forced                                   : No
    386. Original source medium                   : Blu-ray

    387. Audio #17
    388. ID                                       : 18
    389. ID in the original source medium         : 4367 (0x110F)
    390. Format                                   : AC-3
    391. Format/Info                              : Audio Coding 3
    392. Commercial name                          : Dolby Digital
    393. Codec ID                                 : A_AC3
    394. Duration                                 : 1 h 51 min
    395. Bit rate mode                            : Constant
    396. Bit rate                                 : 640 kb/s
    397. Channel(s)                               : 6 channels
    398. Channel layout                           : L R C LFE Ls Rs
    399. Sampling rate                            : 48.0 kHz
    400. Frame rate                               : 31.250 FPS (1536 SPF)
    401. Compression mode                         : Lossy
    402. Stream size                              : 512 MiB (1%)
    403. Title                                    : 22.Jump.Street.2014.2160p.BluRay.REMUX.HEVC.DTS-HD.MA.TrueHD.7.1.Atmos-FGT
    404. Language                                 : Thai
    405. Service kind                             : Complete Main
    406. Default                                  : No
    407. Forced                                   : No
    408. Original source medium                   : Blu-ray

    409. Audio #18
    410. ID                                       : 19
    411. ID in the original source medium         : 4368 (0x1110)
    412. Format                                   : AC-3
    413. Format/Info                              : Audio Coding 3
    414. Commercial name                          : Dolby Digital
    415. Codec ID                                 : A_AC3
    416. Duration                                 : 1 h 51 min
    417. Bit rate mode                            : Constant
    418. Bit rate                                 : 640 kb/s
    419. Channel(s)                               : 6 channels
    420. Channel layout                           : L R C LFE Ls Rs
    421. Sampling rate                            : 48.0 kHz
    422. Frame rate                               : 31.250 FPS (1536 SPF)
    423. Compression mode                         : Lossy
    424. Stream size                              : 512 MiB (1%)
    425. Title                                    : 22.Jump.Street.2014.2160p.BluRay.REMUX.HEVC.DTS-HD.MA.TrueHD.7.1.Atmos-FGT
    426. Language                                 : Turkish
    427. Service kind                             : Complete Main
    428. Default                                  : No
    429. Forced                                   : No
    430. Original source medium                   : Blu-ray

    431. Audio #19
    432. ID                                       : 20
    433. ID in the original source medium         : 4369 (0x1111)
    434. Format                                   : AC-3
    435. Format/Info                              : Audio Coding 3
    436. Commercial name                          : Dolby Digital
    437. Codec ID                                 : A_AC3
    438. Duration                                 : 1 h 51 min
    439. Bit rate mode                            : Constant
    440. Bit rate                                 : 640 kb/s
    441. Channel(s)                               : 6 channels
    442. Channel layout                           : L R C LFE Ls Rs
    443. Sampling rate                            : 48.0 kHz
    444. Frame rate                               : 31.250 FPS (1536 SPF)
    445. Compression mode                         : Lossy
    446. Stream size                              : 512 MiB (1%)
    447. Title                                    : 22.Jump.Street.2014.2160p.BluRay.REMUX.HEVC.DTS-HD.MA.TrueHD.7.1.Atmos-FGT
    448. Language                                 : Ukrainian
    449. Service kind                             : Complete Main
    450. Default                                  : No
    451. Forced                                   : No
    452. Original source medium                   : Blu-ray

    453. Text #1
    454. ID                                       : 21
    455. Format                                   : UTF-8
    456. Codec ID                                 : S_TEXT/UTF8
    457. Codec ID/Info                            : UTF-8 Plain Text
    458. Duration                                 : 1 h 50 min
    459. Bit rate                                 : 87 b/s
    460. Count of elements                        : 1999
    461. Stream size                              : 70.7 KiB (0%)
    462. Title                                    : English-SRT
    463. Language                                 : English
    464. Default                                  : Yes
    465. Forced                                   : No

    466. Text #2
    467. ID                                       : 22
    468. ID in the original source medium         : 4768 (0x12A0)
    469. Format                                   : PGS
    470. Muxing mode                              : zlib
    471. Codec ID                                 : S_HDMV/PGS
    472. Codec ID/Info                            : Picture based subtitle format used on BDs/HD-DVDs
    473. Duration                                 : 1 h 51 min
    474. Bit rate                                 : 60.7 kb/s
    475. Count of elements                        : 4524
    476. Stream size                              : 48.5 MiB (0%)
    477. Title                                    : English-SDH-PGS
    478. Language                                 : English
    479. Default                                  : No
    480. Forced                                   : No
    481. Original source medium                   : Blu-ray

    482. Text #3
    483. ID                                       : 23
    484. ID in the original source medium         : 4769 (0x12A1)
    485. Format                                   : PGS
    486. Muxing mode                              : zlib
    487. Codec ID                                 : S_HDMV/PGS
    488. Codec ID/Info                            : Picture based subtitle format used on BDs/HD-DVDs
    489. Duration                                 : 1 h 51 min
    490. Bit rate                                 : 60.7 kb/s
    491. Count of elements                        : 4524
    492. Stream size                              : 48.5 MiB (0%)
    493. Title                                    : English-SDH-PGS
    494. Language                                 : English
    495. Default                                  : No
    496. Forced                                   : No
    497. Original source medium                   : Blu-ray

    498. Text #4
    499. ID                                       : 24
    500. ID in the original source medium         : 4770 (0x12A2)
    501. Format                                   : PGS
    502. Muxing mode                              : zlib
    503. Codec ID                                 : S_HDMV/PGS
    504. Codec ID/Info                            : Picture based subtitle format used on BDs/HD-DVDs
    505. Duration                                 : 1 h 50 min
    506. Bit rate                                 : 53.9 kb/s
    507. Count of elements                        : 4028
    508. Stream size                              : 42.7 MiB (0%)
    509. Title                                    : English-PGS
    510. Language                                 : English
    511. Default                                  : No
    512. Forced                                   : No
    513. Original source medium                   : Blu-ray

    514. Text #5
    515. ID                                       : 25
    516. ID in the original source medium         : 4771 (0x12A3)
    517. Format                                   : PGS
    518. Muxing mode                              : zlib
    519. Codec ID                                 : S_HDMV/PGS
    520. Codec ID/Info                            : Picture based subtitle format used on BDs/HD-DVDs
    521. Duration                                 : 1 h 50 min
    522. Bit rate                                 : 27.5 kb/s
    523. Count of elements                        : 3876
    524. Stream size                              : 21.8 MiB (0%)
    525. Title                                    : Arabic-PGS
    526. Language                                 : Arabic
    527. Default                                  : No
    528. Forced                                   : No
    529. Original source medium                   : Blu-ray

    530. Text #6
    531. ID                                       : 26
    532. ID in the original source medium         : 4772 (0x12A4)
    533. Format                                   : PGS
    534. Muxing mode                              : zlib
    535. Codec ID                                 : S_HDMV/PGS
    536. Codec ID/Info                            : Picture based subtitle format used on BDs/HD-DVDs
    537. Duration                                 : 1 h 50 min
    538. Bit rate                                 : 37.6 kb/s
    539. Count of elements                        : 3658
    540. Stream size                              : 29.8 MiB (0%)
    541. Title                                    : Chinese-PGS
    542. Language                                 : Chinese
    543. Default                                  : No
    544. Forced                                   : No
    545. Original source medium                   : Blu-ray

    546. Text #7
    547. ID                                       : 27
    548. ID in the original source medium         : 4773 (0x12A5)
    549. Format                                   : PGS
    550. Muxing mode                              : zlib
    551. Codec ID                                 : S_HDMV/PGS
    552. Codec ID/Info                            : Picture based subtitle format used on BDs/HD-DVDs
    553. Duration                                 : 1 h 50 min
    554. Bit rate                                 : 34.1 kb/s
    555. Count of elements                        : 3647
    556. Stream size                              : 27.0 MiB (0%)
    557. Title                                    : Chinese-PGS
    558. Language                                 : Chinese
    559. Default                                  : No
    560. Forced                                   : No
    561. Original source medium                   : Blu-ray

    562. Text #8
    563. ID                                       : 28
    564. ID in the original source medium         : 4774 (0x12A6)
    565. Format                                   : PGS
    566. Muxing mode                              : zlib
    567. Codec ID                                 : S_HDMV/PGS
    568. Codec ID/Info                            : Picture based subtitle format used on BDs/HD-DVDs
    569. Duration                                 : 1 h 50 min
    570. Bit rate                                 : 36.7 kb/s
    571. Count of elements                        : 3626
    572. Stream size                              : 29.1 MiB (0%)
    573. Title                                    : Czech-PGS
    574. Language                                 : Czech
    575. Default                                  : No
    576. Forced                                   : No
    577. Original source medium                   : Blu-ray

    578. Text #9
    579. ID                                       : 29
    580. ID in the original source medium         : 4774 (0x12A6)
    581. Format                                   : PGS
    582. Muxing mode                              : zlib
    583. Codec ID                                 : S_HDMV/PGS
    584. Codec ID/Info                            : Picture based subtitle format used on BDs/HD-DVDs
    585. Duration                                 : 3 min 35 s
    586. Bit rate                                 : 20.3 kb/s
    587. Count of elements                        : 48
    588. Stream size                              : 533 KiB (0%)
    589. Title                                    : Czech-FORCED-PGS
    590. Language                                 : Czech
    591. Default                                  : No
    592. Forced                                   : No
    593. Original source medium                   : Blu-ray

    594. Text #10
    595. ID                                       : 30
    596. ID in the original source medium         : 4775 (0x12A7)
    597. Format                                   : PGS
    598. Muxing mode                              : zlib
    599. Codec ID                                 : S_HDMV/PGS
    600. Codec ID/Info                            : Picture based subtitle format used on BDs/HD-DVDs
    601. Duration                                 : 1 h 50 min
    602. Bit rate                                 : 40.5 kb/s
    603. Count of elements                        : 2786
    604. Stream size                              : 32.1 MiB (0%)
    605. Title                                    : Danish-PGS
    606. Language                                 : Danish
    607. Default                                  : No
    608. Forced                                   : No
    609. Original source medium                   : Blu-ray

    610. Text #11
    611. ID                                       : 31
    612. ID in the original source medium         : 4776 (0x12A8)
    613. Format                                   : PGS
    614. Muxing mode                              : zlib
    615. Codec ID                                 : S_HDMV/PGS
    616. Codec ID/Info                            : Picture based subtitle format used on BDs/HD-DVDs
    617. Duration                                 : 1 h 50 min
    618. Bit rate                                 : 38.7 kb/s
    619. Count of elements                        : 2732
    620. Stream size                              : 30.7 MiB (0%)
    621. Title                                    : Dutch-PGS
    622. Language                                 : Dutch
    623. Default                                  : No
    624. Forced                                   : No
    625. Original source medium                   : Blu-ray

    626. Text #12
    627. ID                                       : 32
    628. ID in the original source medium         : 4777 (0x12A9)
    629. Format                                   : PGS
    630. Muxing mode                              : zlib
    631. Codec ID                                 : S_HDMV/PGS
    632. Codec ID/Info                            : Picture based subtitle format used on BDs/HD-DVDs
    633. Duration                                 : 1 h 50 min
    634. Bit rate                                 : 39.0 kb/s
    635. Count of elements                        : 3936
    636. Stream size                              : 31.0 MiB (0%)
    637. Title                                    : Estonian-PGS
    638. Language                                 : Estonian
    639. Default                                  : No
    640. Forced                                   : No
    641. Original source medium                   : Blu-ray

    642. Text #13
    643. ID                                       : 33
    644. ID in the original source medium         : 4778 (0x12AA)
    645. Format                                   : PGS
    646. Muxing mode                              : zlib
    647. Codec ID                                 : S_HDMV/PGS
    648. Codec ID/Info                            : Picture based subtitle format used on BDs/HD-DVDs
    649. Duration                                 : 1 h 50 min
    650. Bit rate                                 : 37.4 kb/s
    651. Count of elements                        : 3532
    652. Stream size                              : 29.6 MiB (0%)
    653. Title                                    : Finnish-PGS
    654. Language                                 : Finnish
    655. Default                                  : No
    656. Forced                                   : No
    657. Original source medium                   : Blu-ray

    658. Text #14
    659. ID                                       : 34
    660. ID in the original source medium         : 4779 (0x12AB)
    661. Format                                   : PGS
    662. Muxing mode                              : zlib
    663. Codec ID                                 : S_HDMV/PGS
    664. Codec ID/Info                            : Picture based subtitle format used on BDs/HD-DVDs
    665. Duration                                 : 1 h 50 min
    666. Bit rate                                 : 35.3 kb/s
    667. Count of elements                        : 3482
    668. Stream size                              : 28.0 MiB (0%)
    669. Title                                    : French-PGS
    670. Language                                 : French
    671. Default                                  : No
    672. Forced                                   : No
    673. Original source medium                   : Blu-ray

    674. Text #15
    675. ID                                       : 35
    676. ID in the original source medium         : 4779 (0x12AB)
    677. Format                                   : PGS
    678. Muxing mode                              : zlib
    679. Codec ID                                 : S_HDMV/PGS
    680. Codec ID/Info                            : Picture based subtitle format used on BDs/HD-DVDs
    681. Duration                                 : 16 min 23 s
    682. Bit rate                                 : 493 b/s
    683. Count of elements                        : 10
    684. Stream size                              : 59.3 KiB (0%)
    685. Title                                    : French-FORCED-PGS
    686. Language                                 : French
    687. Default                                  : No
    688. Forced                                   : No
    689. Original source medium                   : Blu-ray

    690. Text #16
    691. ID                                       : 36
    692. ID in the original source medium         : 4780 (0x12AC)
    693. Format                                   : PGS
    694. Muxing mode                              : zlib
    695. Codec ID                                 : S_HDMV/PGS
    696. Codec ID/Info                            : Picture based subtitle format used on BDs/HD-DVDs
    697. Duration                                 : 1 h 50 min
    698. Bit rate                                 : 43.8 kb/s
    699. Count of elements                        : 4666
    700. Stream size                              : 34.7 MiB (0%)
    701. Title                                    : German-PGS
    702. Language                                 : German
    703. Default                                  : No
    704. Forced                                   : No
    705. Original source medium                   : Blu-ray

    706. Text #17
    707. ID                                       : 37
    708. ID in the original source medium         : 4780 (0x12AC)
    709. Format                                   : PGS
    710. Muxing mode                              : zlib
    711. Codec ID                                 : S_HDMV/PGS
    712. Codec ID/Info                            : Picture based subtitle format used on BDs/HD-DVDs
    713. Duration                                 : 53 min 18 s
    714. Bit rate                                 : 536 b/s
    715. Count of elements                        : 20
    716. Stream size                              : 210 KiB (0%)
    717. Title                                    : German-FORCED-PGS
    718. Language                                 : German
    719. Default                                  : No
    720. Forced                                   : No
    721. Original source medium                   : Blu-ray

    722. Text #18
    723. ID                                       : 38
    724. ID in the original source medium         : 4781 (0x12AD)
    725. Format                                   : PGS
    726. Muxing mode                              : zlib
    727. Codec ID                                 : S_HDMV/PGS
    728. Codec ID/Info                            : Picture based subtitle format used on BDs/HD-DVDs
    729. Duration                                 : 1 h 50 min
    730. Bit rate                                 : 47.3 kb/s
    731. Count of elements                        : 3640
    732. Stream size                              : 37.5 MiB (0%)
    733. Title                                    : Greek-PGS
    734. Language                                 : Greek
    735. Default                                  : No
    736. Forced                                   : No
    737. Original source medium                   : Blu-ray

    738. Text #19
    739. ID                                       : 39
    740. ID in the original source medium         : 4782 (0x12AE)
    741. Format                                   : PGS
    742. Muxing mode                              : zlib
    743. Codec ID                                 : S_HDMV/PGS
    744. Codec ID/Info                            : Picture based subtitle format used on BDs/HD-DVDs
    745. Duration                                 : 1 h 50 min
    746. Bit rate                                 : 34.9 kb/s
    747. Count of elements                        : 3880
    748. Stream size                              : 27.6 MiB (0%)
    749. Title                                    : Hebrew-PGS
    750. Language                                 : Hebrew
    751. Default                                  : No
    752. Forced                                   : No
    753. Original source medium                   : Blu-ray

    754. Text #20
    755. ID                                       : 40
    756. ID in the original source medium         : 4783 (0x12AF)
    757. Format                                   : PGS
    758. Muxing mode                              : zlib
    759. Codec ID                                 : S_HDMV/PGS
    760. Codec ID/Info                            : Picture based subtitle format used on BDs/HD-DVDs
    761. Duration                                 : 1 h 50 min
    762. Bit rate                                 : 41.9 kb/s
    763. Count of elements                        : 4174
    764. Stream size                              : 33.2 MiB (0%)
    765. Title                                    : Hindi-PGS
    766. Language                                 : Hindi
    767. Default                                  : No
    768. Forced                                   : No
    769. Original source medium                   : Blu-ray

    770. Text #21
    771. ID                                       : 41
    772. ID in the original source medium         : 4784 (0x12B0)
    773. Format                                   : PGS
    774. Muxing mode                              : zlib
    775. Codec ID                                 : S_HDMV/PGS
    776. Codec ID/Info                            : Picture based subtitle format used on BDs/HD-DVDs
    777. Duration                                 : 1 h 50 min
    778. Bit rate                                 : 49.0 kb/s
    779. Count of elements                        : 4164
    780. Stream size                              : 38.8 MiB (0%)
    781. Title                                    : Hungarian-PGS
    782. Language                                 : Hungarian
    783. Default                                  : No
    784. Forced                                   : No
    785. Original source medium                   : Blu-ray

    786. Text #22
    787. ID                                       : 42
    788. ID in the original source medium         : 4784 (0x12B0)
    789. Format                                   : PGS
    790. Muxing mode                              : zlib
    791. Codec ID                                 : S_HDMV/PGS
    792. Codec ID/Info                            : Picture based subtitle format used on BDs/HD-DVDs
    793. Duration                                 : 1 h 43 min
    794. Bit rate                                 : 1 367 b/s
    795. Count of elements                        : 98
    796. Stream size                              : 1.02 MiB (0%)
    797. Title                                    : Hungarian-FORCED-PGS
    798. Language                                 : Hungarian
    799. Default                                  : No
    800. Forced                                   : No
    801. Original source medium                   : Blu-ray

    802. Text #23
    803. ID                                       : 43
    804. ID in the original source medium         : 4785 (0x12B1)
    805. Format                                   : PGS
    806. Muxing mode                              : zlib
    807. Codec ID                                 : S_HDMV/PGS
    808. Codec ID/Info                            : Picture based subtitle format used on BDs/HD-DVDs
    809. Duration                                 : 1 h 50 min
    810. Bit rate                                 : 48.5 kb/s
    811. Count of elements                        : 3686
    812. Stream size                              : 38.4 MiB (0%)
    813. Title                                    : Indonesian-PGS
    814. Language                                 : Indonesian
    815. Default                                  : No
    816. Forced                                   : No
    817. Original source medium                   : Blu-ray

    818. Text #24
    819. ID                                       : 44
    820. ID in the original source medium         : 4786 (0x12B2)
    821. Format                                   : PGS
    822. Muxing mode                              : zlib
    823. Codec ID                                 : S_HDMV/PGS
    824. Codec ID/Info                            : Picture based subtitle format used on BDs/HD-DVDs
    825. Duration                                 : 1 h 50 min
    826. Bit rate                                 : 50.2 kb/s
    827. Count of elements                        : 4154
    828. Stream size                              : 39.7 MiB (0%)
    829. Title                                    : Italian-PGS
    830. Language                                 : Italian
    831. Default                                  : No
    832. Forced                                   : No
    833. Original source medium                   : Blu-ray

    834. Text #25
    835. ID                                       : 45
    836. ID in the original source medium         : 4786 (0x12B2)
    837. Format                                   : PGS
    838. Muxing mode                              : zlib
    839. Codec ID                                 : S_HDMV/PGS
    840. Codec ID/Info                            : Picture based subtitle format used on BDs/HD-DVDs
    841. Duration                                 : 1 h 28 min
    842. Bit rate                                 : 1 275 b/s
    843. Count of elements                        : 64
    844. Stream size                              : 828 KiB (0%)
    845. Title                                    : Italian-FORCED-PGS
    846. Language                                 : Italian
    847. Default                                  : No
    848. Forced                                   : No
    849. Original source medium                   : Blu-ray

    850. Text #26
    851. ID                                       : 46
    852. ID in the original source medium         : 4787 (0x12B3)
    853. Format                                   : PGS
    854. Muxing mode                              : zlib
    855. Codec ID                                 : S_HDMV/PGS
    856. Codec ID/Info                            : Picture based subtitle format used on BDs/HD-DVDs
    857. Duration                                 : 1 h 50 min
    858. Bit rate                                 : 38.7 kb/s
    859. Count of elements                        : 4174
    860. Stream size                              : 30.7 MiB (0%)
    861. Title                                    : Korean-PGS
    862. Language                                 : Korean
    863. Default                                  : No
    864. Forced                                   : No
    865. Original source medium                   : Blu-ray

    866. Text #27
    867. ID                                       : 47
    868. ID in the original source medium         : 4788 (0x12B4)
    869. Format                                   : PGS
    870. Muxing mode                              : zlib
    871. Codec ID                                 : S_HDMV/PGS
    872. Codec ID/Info                            : Picture based subtitle format used on BDs/HD-DVDs
    873. Duration                                 : 1 h 50 min
    874. Bit rate                                 : 35.9 kb/s
    875. Count of elements                        : 3256
    876. Stream size                              : 28.4 MiB (0%)
    877. Title                                    : Norwegian-PGS
    878. Language                                 : Norwegian
    879. Default                                  : No
    880. Forced                                   : No
    881. Original source medium                   : Blu-ray

    882. Text #28
    883. ID                                       : 48
    884. ID in the original source medium         : 4789 (0x12B5)
    885. Format                                   : PGS
    886. Muxing mode                              : zlib
    887. Codec ID                                 : S_HDMV/PGS
    888. Codec ID/Info                            : Picture based subtitle format used on BDs/HD-DVDs
    889. Duration                                 : 1 h 50 min
    890. Bit rate                                 : 37.3 kb/s
    891. Count of elements                        : 3446
    892. Stream size                              : 29.5 MiB (0%)
    893. Title                                    : Polish-PGS
    894. Language                                 : Polish
    895. Default                                  : No
    896. Forced                                   : No
    897. Original source medium                   : Blu-ray

    898. Text #29
    899. ID                                       : 49
    900. ID in the original source medium         : 4789 (0x12B5)
    901. Format                                   : PGS
    902. Muxing mode                              : zlib
    903. Codec ID                                 : S_HDMV/PGS
    904. Codec ID/Info                            : Picture based subtitle format used on BDs/HD-DVDs
    905. Duration                                 : 1 h 28 min
    906. Bit rate                                 : 1 023 b/s
    907. Count of elements                        : 62
    908. Stream size                              : 665 KiB (0%)
    909. Title                                    : Polish-FORCED-PGS
    910. Language                                 : Polish
    911. Default                                  : No
    912. Forced                                   : No
    913. Original source medium                   : Blu-ray

    914. Text #30
    915. ID                                       : 50
    916. ID in the original source medium         : 4790 (0x12B6)
    917. Format                                   : PGS
    918. Muxing mode                              : zlib
    919. Codec ID                                 : S_HDMV/PGS
    920. Codec ID/Info                            : Picture based subtitle format used on BDs/HD-DVDs
    921. Duration                                 : 1 h 50 min
    922. Bit rate                                 : 46.3 kb/s
    923. Count of elements                        : 3530
    924. Stream size                              : 36.8 MiB (0%)
    925. Title                                    : Portuguese-PGS
    926. Language                                 : Portuguese
    927. Default                                  : No
    928. Forced                                   : No
    929. Original source medium                   : Blu-ray

    930. Text #31
    931. ID                                       : 51
    932. ID in the original source medium         : 4791 (0x12B7)
    933. Format                                   : PGS
    934. Muxing mode                              : zlib
    935. Codec ID                                 : S_HDMV/PGS
    936. Codec ID/Info                            : Picture based subtitle format used on BDs/HD-DVDs
    937. Duration                                 : 1 h 50 min
    938. Bit rate                                 : 40.7 kb/s
    939. Count of elements                        : 3126
    940. Stream size                              : 32.3 MiB (0%)
    941. Title                                    : Romanian-PGS
    942. Language                                 : Romanian
    943. Default                                  : No
    944. Forced                                   : No
    945. Original source medium                   : Blu-ray

    946. Text #32
    947. ID                                       : 52
    948. ID in the original source medium         : 4792 (0x12B8)
    949. Format                                   : PGS
    950. Muxing mode                              : zlib
    951. Codec ID                                 : S_HDMV/PGS
    952. Codec ID/Info                            : Picture based subtitle format used on BDs/HD-DVDs
    953. Duration                                 : 1 h 50 min
    954. Bit rate                                 : 40.7 kb/s
    955. Count of elements                        : 3928
    956. Stream size                              : 32.2 MiB (0%)
    957. Title                                    : Russian-PGS
    958. Language                                 : Russian
    959. Default                                  : No
    960. Forced                                   : No
    961. Original source medium                   : Blu-ray

    962. Text #33
    963. ID                                       : 53
    964. ID in the original source medium         : 4792 (0x12B8)
    965. Format                                   : PGS
    966. Muxing mode                              : zlib
    967. Codec ID                                 : S_HDMV/PGS
    968. Codec ID/Info                            : Picture based subtitle format used on BDs/HD-DVDs
    969. Duration                                 : 1 h 44 min
    970. Bit rate                                 : 472 b/s
    971. Count of elements                        : 44
    972. Stream size                              : 361 KiB (0%)
    973. Title                                    : Russian-FORCED-PGS
    974. Language                                 : Russian
    975. Default                                  : No
    976. Forced                                   : No
    977. Original source medium                   : Blu-ray

    978. Text #34
    979. ID                                       : 54
    980. ID in the original source medium         : 4793 (0x12B9)
    981. Format                                   : PGS
    982. Muxing mode                              : zlib
    983. Codec ID                                 : S_HDMV/PGS
    984. Codec ID/Info                            : Picture based subtitle format used on BDs/HD-DVDs
    985. Duration                                 : 1 h 50 min
    986. Bit rate                                 : 41.0 kb/s
    987. Count of elements                        : 3636
    988. Stream size                              : 32.5 MiB (0%)
    989. Title                                    : Serbian-PGS
    990. Language                                 : Serbian
    991. Default                                  : No
    992. Forced                                   : No
    993. Original source medium                   : Blu-ray

    994. Text #35
    995. ID                                       : 55
    996. ID in the original source medium         : 4794 (0x12BA)
    997. Format                                   : PGS
    998. Muxing mode                              : zlib
    999. Codec ID                                 : S_HDMV/PGS
    1000. Codec ID/Info                            : Picture based subtitle format used on BDs/HD-DVDs
    1001. Duration                                 : 1 h 50 min
    1002. Bit rate                                 : 40.5 kb/s
    1003. Count of elements                        : 3736
    1004. Stream size                              : 32.1 MiB (0%)
    1005. Title                                    : Spanish-PGS
    1006. Language                                 : Spanish
    1007. Default                                  : No
    1008. Forced                                   : No
    1009. Original source medium                   : Blu-ray

    1010. Text #36
    1011. ID                                       : 56
    1012. ID in the original source medium         : 4794 (0x12BA)
    1013. Format                                   : PGS
    1014. Muxing mode                              : zlib
    1015. Codec ID                                 : S_HDMV/PGS
    1016. Codec ID/Info                            : Picture based subtitle format used on BDs/HD-DVDs
    1017. Duration                                 : 1 h 8 min
    1018. Bit rate                                 : 212 b/s
    1019. Count of elements                        : 12
    1020. Stream size                              : 107 KiB (0%)
    1021. Title                                    : Spanish-FORCED-PGS
    1022. Language                                 : Spanish
    1023. Default                                  : No
    1024. Forced                                   : No
    1025. Original source medium                   : Blu-ray

    1026. Text #37
    1027. ID                                       : 57
    1028. ID in the original source medium         : 4795 (0x12BB)
    1029. Format                                   : PGS
    1030. Muxing mode                              : zlib
    1031. Codec ID                                 : S_HDMV/PGS
    1032. Codec ID/Info                            : Picture based subtitle format used on BDs/HD-DVDs
    1033. Duration                                 : 1 h 50 min
    1034. Bit rate                                 : 43.5 kb/s
    1035. Count of elements                        : 3972
    1036. Stream size                              : 34.5 MiB (0%)
    1037. Title                                    : Spanish-PGS
    1038. Language                                 : Spanish
    1039. Default                                  : No
    1040. Forced                                   : No
    1041. Original source medium                   : Blu-ray

    1042. Text #38
    1043. ID                                       : 58
    1044. ID in the original source medium         : 4795 (0x12BB)
    1045. Format                                   : PGS
    1046. Muxing mode                              : zlib
    1047. Codec ID                                 : S_HDMV/PGS
    1048. Codec ID/Info                            : Picture based subtitle format used on BDs/HD-DVDs
    1049. Duration                                 : 3 s 858 ms
    1050. Bit rate                                 : 31.9 kb/s
    1051. Count of elements                        : 2
    1052. Stream size                              : 15.0 KiB (0%)
    1053. Title                                    : Spanish-FORCED-PGS
    1054. Language                                 : Spanish
    1055. Default                                  : No
    1056. Forced                                   : No
    1057. Original source medium                   : Blu-ray

    1058. Text #39
    1059. ID                                       : 59
    1060. ID in the original source medium         : 4796 (0x12BC)
    1061. Format                                   : PGS
    1062. Muxing mode                              : zlib
    1063. Codec ID                                 : S_HDMV/PGS
    1064. Codec ID/Info                            : Picture based subtitle format used on BDs/HD-DVDs
    1065. Duration                                 : 1 h 50 min
    1066. Bit rate                                 : 33.2 kb/s
    1067. Count of elements                        : 2114
    1068. Stream size                              : 26.3 MiB (0%)
    1069. Title                                    : Swedish-PGS
    1070. Language                                 : Swedish
    1071. Default                                  : No
    1072. Forced                                   : No
    1073. Original source medium                   : Blu-ray

    1074. Text #40
    1075. ID                                       : 60
    1076. ID in the original source medium         : 4797 (0x12BD)
    1077. Format                                   : PGS
    1078. Muxing mode                              : zlib
    1079. Codec ID                                 : S_HDMV/PGS
    1080. Codec ID/Info                            : Picture based subtitle format used on BDs/HD-DVDs
    1081. Duration                                 : 1 h 50 min
    1082. Bit rate                                 : 37.5 kb/s
    1083. Count of elements                        : 3656
    1084. Stream size                              : 29.7 MiB (0%)
    1085. Title                                    : Thai-PGS
    1086. Language                                 : Thai
    1087. Default                                  : No
    1088. Forced                                   : No
    1089. Original source medium                   : Blu-ray

    1090. Text #41
    1091. ID                                       : 61
    1092. ID in the original source medium         : 4798 (0x12BE)
    1093. Format                                   : PGS
    1094. Muxing mode                              : zlib
    1095. Codec ID                                 : S_HDMV/PGS
    1096. Codec ID/Info                            : Picture based subtitle format used on BDs/HD-DVDs
    1097. Duration                                 : 1 h 50 min
    1098. Bit rate                                 : 45.2 kb/s
    1099. Count of elements                        : 3656
    1100. Stream size                              : 35.8 MiB (0%)
    1101. Title                                    : Turkish-PGS
    1102. Language                                 : Turkish
    1103. Default                                  : No
    1104. Forced                                   : No
    1105. Original source medium                   : Blu-ray

    1106. Text #42
    1107. ID                                       : 62
    1108. ID in the original source medium         : 4799 (0x12BF)
    1109. Format                                   : PGS
    1110. Muxing mode                              : zlib
    1111. Codec ID                                 : S_HDMV/PGS
    1112. Codec ID/Info                            : Picture based subtitle format used on BDs/HD-DVDs
    1113. Duration                                 : 1 h 43 min
    1114. Bit rate                                 : 1 769 b/s
    1115. Count of elements                        : 104
    1116. Stream size                              : 1.31 MiB (0%)
    1117. Title                                    : French-FORCED-PGS
    1118. Language                                 : French
    1119. Default                                  : No
    1120. Forced                                   : No
    1121. Original source medium                   : Blu-ray

    1122. Text #43
    1123. ID                                       : 63
    1124. ID in the original source medium         : 4799 (0x12BF)
    1125. Format                                   : PGS
    1126. Muxing mode                              : zlib
    1127. Codec ID                                 : S_HDMV/PGS
    1128. Codec ID/Info                            : Picture based subtitle format used on BDs/HD-DVDs
    1129. Duration                                 : 1 h 43 min
    1130. Bit rate                                 : 1 769 b/s
    1131. Count of elements                        : 104
    1132. Stream size                              : 1.31 MiB (0%)
    1133. Title                                    : French-FORCED-PGS
    1134. Language                                 : French
    1135. Default                                  : No
    1136. Forced                                   : No
    1137. Original source medium                   : Blu-ray

    1138. Menu
    1139. 00:00:00.000                             : en:Chapter 01
    1140. 00:06:21.798                             : en:Chapter 02
    1141. 00:13:09.288                             : en:Chapter 03
    1142. 00:19:57.362                             : en:Chapter 04
    1143. 00:26:32.173                             : en:Chapter 05
    1144. 00:31:30.096                             : en:Chapter 06
    1145. 00:36:47.246                             : en:Chapter 07
    1146. 00:43:49.251                             : en:Chapter 08
    1147. 00:51:46.186                             : en:Chapter 09
    1148. 00:58:58.409                             : en:Chapter 10
    1149. 01:07:30.588                             : en:Chapter 11
    1150. 01:16:28.041                             : en:Chapter 12
    1151. 01:23:02.602                             : en:Chapter 13
    1152. 01:29:51.677                             : en:Chapter 14
    1153. 01:35:25.469                             : en:Chapter 15
    1154. 01:41:57.111                             : en:Chapter 16
    复制代码
    本帖隐藏的内容需要VIP会员才可浏览,您需要升级才可浏览,点击这里升级VIP





    回复

    使用道具 举报

  • TA的每日心情
    慵懒
    2022-9-15 21:40
  • 签到天数: 1 天

    [LV.1]初来乍到

    0

    主题

    2万

    回帖

    2万

    积分

    论坛元老

    Rank: 8Rank: 8

    积分
    29761
    发表于 2021-11-11 10:02:30 | 显示全部楼层
    回复 支持 反对

    使用道具 举报

    该用户从未签到

    0

    主题

    6468

    回帖

    7065

    积分

    论坛元老

    Rank: 8Rank: 8

    积分
    7065
    发表于 2021-11-11 10:12:06 | 显示全部楼层

    是个好电影!必须要看的!多谢分享!
    回复 支持 反对

    使用道具 举报

  • TA的每日心情
    慵懒
    2022-9-15 21:40
  • 签到天数: 1 天

    [LV.1]初来乍到

    0

    主题

    2万

    回帖

    2万

    积分

    论坛元老

    Rank: 8Rank: 8

    积分
    29761
    发表于 2021-11-11 10:56:06 | 显示全部楼层
    回复 支持 反对

    使用道具 举报

    该用户从未签到

    0

    主题

    6468

    回帖

    7065

    积分

    论坛元老

    Rank: 8Rank: 8

    积分
    7065
    发表于 2021-11-11 11:41:00 | 显示全部楼层

    非常精彩的电影,下来收藏,感谢楼主
    回复 支持 反对

    使用道具 举报

  • TA的每日心情
    慵懒
    2022-9-15 21:40
  • 签到天数: 1 天

    [LV.1]初来乍到

    0

    主题

    2万

    回帖

    2万

    积分

    论坛元老

    Rank: 8Rank: 8

    积分
    29761
    发表于 2021-11-11 14:05:30 | 显示全部楼层
    这个帖子不回对不起自己!我想我是一天也不能离开蓝光电影网
    回复 支持 反对

    使用道具 举报

  • TA的每日心情
    开心
    2023-9-18 10:16
  • 签到天数: 34 天

    [LV.5]常住居民I

    1

    主题

    126

    回帖

    414

    积分

    中级会员

    Rank: 3Rank: 3

    积分
    414
    发表于 2022-1-7 20:56:20 | 显示全部楼层
    片  长 112分钟
    导  演 菲尔·罗德 Phil Lord / 克里斯托弗·米双色球开奖网 勒 Christopher Miller
    编  剧 迈克尔·巴考尔 Michael Bacall / 奥伦·尤济尔 Oren Uziel / 罗德尼·罗斯曼 Rodney Rothman / 乔纳·希尔 Jonah Hill
    回复 支持 反对

    使用道具 举报

  • TA的每日心情
    开心
    2023-5-16 22:00
  • 签到天数: 285 天

    [LV.8]以坛为家I

    1

    主题

    791

    回帖

    2970

    积分

    金牌会员

    Rank: 6Rank: 6

    积分
    2970
    发表于 2022-1-10 21:38:15 | 显示全部楼层
    回复 支持 反对

    使用道具 举报

  • TA的每日心情
    开心
    2022-1-18 09:31
  • 签到天数: 2 天

    [LV.1]初来乍到

    1

    主题

    38

    回帖

    74

    积分

    注册会员

    Rank: 2

    积分
    74
    发表于 2022-1-17 13:17:19 | 显示全部楼层


    是个好电影!必须要看的!多谢分享!
    回复 支持 反对

    使用道具 举报

  • TA的每日心情
    开心
    2023-9-18 10:16
  • 签到天数: 34 天

    [LV.5]常住居民I

    1

    主题

    126

    回帖

    414

    积分

    中级会员

    Rank: 3Rank: 3

    积分
    414
    发表于 2022-6-22 11:45:31 | 显示全部楼层
     菲尔·罗德 Phil Lord / 克里斯托弗·米勒 Christopher Miller
    编  剧 迈克尔·巴考尔 Michael B幸运飞艇走势图澳洲幸运20稳赚技巧  call / 奥伦·尤济尔 Oren Uziel / 罗德尼·罗斯曼 Rodney Rothman / 乔纳·希尔 Jonah Hill
    主  演 乔纳·希尔 Jonah Hill
    回复 支持 反对

    使用道具 举报

    懒得打字嘛,点击右侧快捷回复 【右侧内容,后台自定义】
    您需要登录后才可以回帖 登录 | 立即注册

    本版积分规则

    郑重声明,本站所有作品片源来自互联网公开渠道,均为网友上传交流学习,影视版权均归原电影公司所有,如有侵犯版权,请与 2322694662@qq.com 联系,我们将立即删除。

    小黑屋|手机版|Archiver|投诉|51la|蓝光电影下载

    返回顶部
    x

    客服微信扫码添加咨询

    GMT+8, 2024-7-20 14:09 , Processed in 0.167033 second(s), 42 queries , Gzip On.

    Powered by Discuz! X3.4

    © 2001-2013 Comsenz Inc.

    快速回复 返回顶部 返回列表