快捷导航
查看: 798|回复: 30

[剧情] 法庭/我要真…审讯 Court.2014.LIMITED.1080p.BluRay.x264-USURY 7.94GB

[复制链接]
  • TA的每日心情
    慵懒
    2022-3-24 22:05
  • 签到天数: 137 天

    [LV.7]常住居民III

    2527

    主题

    2666

    帖子

    6137

    积分

    发布组

    积分
    6137
    发表于 2021-12-3 21:05:48 | 显示全部楼层 |阅读模式
    1. 帖子完整标题:法庭/我要真…审讯 Court.2014.LIMITED.1080p.BluRay.x264-USURY 7.94GB
    复制代码
    法庭/我要真…审讯 Court.2014.LIMITED.1080p.BluRay.x264-USURY 7.94GB-1.png


    译  名 法庭/我要真…审讯(港)/等待判决的日子(台)/被捕无限次(港)
    片  名 Court
    年  代 2014
    产  地 印度
    类  别 剧情
    语  言 马拉提语,古吉拉特语,英语,北印度语
    上映日期 2014-09-04(威尼斯电影节) / 2015-04-17(印度)
    IMDb评分  7.7/10 from 3731 users
    IMDb链接  https://www.imdb.com/title/tt3717068/
    豆瓣评分 7.0/10 from 372 users
    豆瓣链接 https://movie.douban.com/subject/25934374/
    片  长 116分钟
    导  演 柴塔尼亚·塔姆哈尼 Chaitanya Tamhane
    编  剧 柴塔尼亚·塔姆哈尼 Chaitanya Tamhane

    标  签 印度 | 印度电影 | 2014 | 剧情 | 法律 | 政治 | 人性 | 电影

    简  介

      第71届威尼斯电影节地平线单元最佳影片。一位孟买下水道工人被发现陈尸于他的工作地点,死因竟然一首歌?65岁的民间歌手兼社运人仕被指控以歌曲教唆他人自杀。随着案件展开,死者和被告身世大起底, 连律师和法官的私生活也被评头品足。新扎编导首部电影即见真章,运用了新鲜的电影语言,以无稽荒谬情节和对白,揭示法治其实是人治的道理,再审视家庭背景与阶级如何建立不同的价值观,成就不同的社会。

    获奖情况

      第71届威尼斯电影节 ?(2014)
      地平线单元奖最佳影片 柴塔尼亚·塔姆哈尼
      
      第9届亚洲电影大奖 ?(2015)
      最佳编剧(提名) 柴塔尼亚·塔姆哈尼
    1. Video
    2. ID                                       : 1
    3. Format                                   : AVC
    4. Format/Info                              : Advanced Video Codec
    5. Format profile                           : High@L4
    6. Format settings                          : CABAC / 5 Ref Frames
    7. Format settings, CABAC                   : Yes
    8. Format settings, Reference frames        : 5 frames
    9. Codec ID                                 : V_MPEG4/ISO/AVC
    10. Duration                                 : 1 h 56 min
    11. Bit rate                                 : 8 263 kb/s
    12. Width                                    : 1 920 pixels
    13. Height                                   : 808 pixels
    14. Display aspect ratio                     : 2.40:1
    15. Frame rate mode                          : Constant
    16. Frame rate                               : 23.976 (24000/1001/189150) FPS
    17. Color space                              : YUV
    18. Chroma subsampling                       : 4:2:0
    19. Bit depth                                : 8 bits
    20. Scan type                                : Progressive
    21. Bits/(Pixel*Frame)                       : 0.222
    22. Stream size                              : 6.71 GiB (85%)
    23. Writing library                          : x264 core 155 r2901 7d0ff22
    24. Encoding settings                        : cabac=1 / ref=5 / deblock=1:-3:-3 / analyse=0x3:0x133 / me=umh / subme=9 / psy=1 / psy_rd=1.00:0.00 / mixed_ref=1 / me_range=16 / chroma_me=1 / trellis=2 / 8x8dct=1 / cqm=0 / deadzone=21,11 / fast_pskip=0 / chroma_qp_offset=-2 / threads=24 / lookahead_threads=2 / sliced_threads=0 / nr=0 / decimate=1 / interlaced=0 / bluray_compat=0 / constrained_intra=0 / bframes=3 / b_pyramid=2 / b_adapt=1 / b_bias=0 / direct=3 / weightb=1 / open_gop=0 / weightp=2 / keyint=240 / keyint_min=24 / scenecut=40 / intra_refresh=0 / rc_lookahead=50 / rc=2pass / mbtree=1 / bitrate=8263 / ratetol=1.0 / qcomp=0.60 / qpmin=0 / qpmax=69 / qpstep=4 / cplxblur=20.0 / qblur=0.5 / ip_ratio=1.40 / aq=1:1.00
    25. Language                                 : English
    26. Default                                  : Yes
    27. Forced                                   : No

    28. Audio
    29. ID                                       : 2
    30. Format                                   : DTS
    31. Format/Info                              : Digital Theater Systems
    32. Codec ID                                 : A_DTS
    33. Duration                                 : 1 h 56 min
    34. Bit rate mode                            : Constant
    35. Bit rate                                 : 1 509 kb/s
    36. Channel(s)                               : 6 channels
    37. Channel layout                           : C L R Ls Rs LFE
    38. Sampling rate                            : 48.0 kHz
    39. Frame rate                               : 93.750 FPS (512 SPF)
    40. Bit depth                                : 24 bits
    41. Compression mode                         : Lossy
    42. Stream size                              : 1.23 GiB (15%)
    43. Language                                 : Hindi
    44. Default                                  : Yes
    45. Forced                                   : No

    46. Text #1
    47. ID                                       : 3
    48. Format                                   : UTF-8
    49. Codec ID                                 : S_TEXT/UTF8
    50. Codec ID/Info                            : UTF-8 Plain Text
    51. Duration                                 : 1 h 50 min
    52. Bit rate                                 : 61 b/s
    53. Count of elements                        : 1253
    54. Stream size                              : 49.7 KiB (0%)
    55. Title                                    : English
    56. Language                                 : English
    57. Default                                  : Yes
    58. Forced                                   : Yes

    59. Text #2
    60. ID                                       : 4
    61. Format                                   : UTF-8
    62. Codec ID                                 : S_TEXT/UTF8
    63. Codec ID/Info                            : UTF-8 Plain Text
    64. Duration                                 : 1 h 52 min
    65. Bit rate                                 : 66 b/s
    66. Count of elements                        : 1385
    67. Stream size                              : 54.6 KiB (0%)
    68. Title                                    : English SDH
    69. Language                                 : English
    70. Default                                  : No
    71. Forced                                   : No

    72. Menu
    73. 00:00:00.000                             : en:00:00:00.000
    74. 00:08:50.113                             : en:00:08:50.113
    75. 00:21:06.098                             : en:00:21:06.098
    76. 00:30:48.722                             : en:00:30:48.722
    77. 00:46:36.669                             : en:00:46:36.669
    78. 00:59:10.464                             : en:00:59:10.464
    79. 01:09:12.899                             : en:01:09:12.899
    80. 01:20:27.322                             : en:01:20:27.322
    81. 01:30:19.914                             : en:01:30:19.914
    82. 01:43:58.732                             : en:01:43:58.732
    复制代码

    法庭/我要真…审讯 Court.2014.LIMITED.1080p.BluRay.x264-USURY 7.94GB-2.png
    本帖隐藏的内容需要VIP会员才可浏览,您需要升级才可浏览,点击这里升级VIP





    回复

    使用道具 举报

    该用户从未签到

    0

    主题

    1204

    帖子

    1155

    积分

    金牌会员

    Rank: 6Rank: 6

    积分
    1155
    发表于 2021-12-3 21:06:00 | 显示全部楼层
    回复 支持 反对

    使用道具 举报

    该用户从未签到

    0

    主题

    2722

    帖子

    2552

    积分

    金牌会员

    Rank: 6Rank: 6

    积分
    2552
    发表于 2021-12-3 21:06:07 | 显示全部楼层
    回复 支持 反对

    使用道具 举报

    该用户从未签到

    0

    主题

    3855

    帖子

    3485

    积分

    论坛元老

    Rank: 8Rank: 8

    积分
    3485
    发表于 2021-12-3 22:51:41 | 显示全部楼层
    回复 支持 反对

    使用道具 举报

    该用户从未签到

    0

    主题

    2万

    帖子

    2万

    积分

    论坛元老

    Rank: 8Rank: 8

    积分
    20972
    发表于 2021-12-4 09:31:28 | 显示全部楼层
    回复 支持 反对

    使用道具 举报

    该用户从未签到

    0

    主题

    1624

    帖子

    1487

    积分

    金牌会员

    Rank: 6Rank: 6

    积分
    1487
    发表于 2021-12-4 11:53:33 | 显示全部楼层

    是个好电影!必须要看的!多谢分享!
    回复 支持 反对

    使用道具 举报

  • TA的每日心情
    开心
    2016-6-1 14:06
  • 签到天数: 1 天

    [LV.1]初来乍到

    0

    主题

    1182

    帖子

    1084

    积分

    金牌会员

    Rank: 6Rank: 6

    积分
    1084
    发表于 2021-12-4 12:50:49 | 显示全部楼层
    感谢楼主的无私分享!要想蓝光高清电影网好 就靠你我他
    回复 支持 反对

    使用道具 举报

    该用户从未签到

    0

    主题

    7295

    帖子

    5936

    积分

    论坛元老

    Rank: 8Rank: 8

    积分
    5936
    发表于 2021-12-4 16:20:52 | 显示全部楼层
    回复 支持 反对

    使用道具 举报

    该用户从未签到

    0

    主题

    7295

    帖子

    5936

    积分

    论坛元老

    Rank: 8Rank: 8

    积分
    5936
    发表于 2021-12-5 04:01:13 | 显示全部楼层
    这个帖子不回对不起自己!我想我是一天也不能离开蓝光电影网
    回复 支持 反对

    使用道具 举报

  • TA的每日心情
    开心
    2022-4-1 15:42
  • 签到天数: 5 天

    [LV.2]偶尔看看I

    1

    主题

    19

    帖子

    64

    积分

    注册会员

    Rank: 2

    积分
    64
    发表于 2021-12-5 08:59:37 | 显示全部楼层
    回复 支持 反对

    使用道具 举报

    懒得打字嘛,点击右侧快捷回复 【右侧内容,后台自定义】
    您需要登录后才可以回帖 登录 | 立即注册

    本版积分规则

    郑重声明,本站所有作品片源来自互联网公开渠道,均为网友上传交流学习,影视版权均归原电影公司所有,如有侵犯版权,请与 2322694662@qq.com 联系,我们将立即删除。

    小黑屋|手机版|Archiver|百度统计|投诉|蓝光电影下载

    GMT+8, 2022-5-27 10:21 , Processed in 0.142530 second(s), 28 queries , Gzip On, MemCached On.

    Powered by Discuz! X3.4

    © 2001-2013 Comsenz Inc.

    快速回复 返回顶部 返回列表