快捷导航
查看: 457|回复: 13

[惊悚] 舞娘杀手 Stripped.to.Kill.1987.1080p.BluRay.x264-GUACAMOLE 5.46GB

[复制链接]
  • TA的每日心情
    开心
    2020-2-15 21:32
  • 签到天数: 240 天

    [LV.8]以坛为家I

    1万

    主题

    1万

    帖子

    6万

    积分

    管理员

    蓝光君

    Rank: 9Rank: 9Rank: 9

    积分
    67808

    活跃会员热心会员推广达人突出贡献优秀版主荣誉管理论坛元老

    QQ
    发表于 2019-7-22 23:14:06 | 显示全部楼层 |阅读模式

    舞娘杀手 Stripped.to.Kill.1987.1080p.BluRay.x264-GUACAMOLE 5.46GB-1.png

    译  名 舞娘杀手
    片  名 Stripped to Kill
    年  代 1987
    产  地 美国
    类  别 惊悚
    语  言 英语
    上映日期 1987
    IMDb评分  5.0/10 from 814 users
    IMDb链接  http://www.imdb.com/title/tt0094061
    豆瓣评分 0/10 from 0 users
    豆瓣链接 https://movie.douban.com/subject/5047250/
    片  长 88 分钟
    导  演 Katt Shea
    编  剧 Andy Ruben
    主  演 凯伊·兰兹 Kay Lenz
          格雷格·艾维甘 Greg Evigan


    标  签 惊悚 | 美国电影 | 美国 | 犯罪 | 系列剧 | 情色&色情 | 情色 | 心刀

    简  介  

      暂无相关剧情介绍

    Video
    ID                                       : 1
    Format                                   : AVC
    Format/Info                              : Advanced Video Codec
    Format profile                           : [email protected]
    Format settings                          : CABAC / 4 Ref Frames
    Format settings, CABAC                   : Yes
    Format settings, RefFrames               : 4 frames
    Codec ID                                 : V_MPEG4/ISO/AVC
    Duration                                 : 1 h 26 min
    Bit rate                                 : 8 656 kb/s
    Width                                    : 1 920 pixels
    Height                                   : 1 080 pixels
    Display aspect ratio                     : 16:9
    Frame rate mode                          : Constant
    Frame rate                               : 23.976 (24000/1001) FPS
    Color space                              : YUV
    Chroma subsampling                       : 4:2:0
    Bit depth                                : 8 bits
    Scan type                                : Progressive
    Bits/(Pixel*Frame)                       : 0.174
    Stream size                              : 5.23 GiB (96%)
    Writing library                          : x264 core 155 r2901 7d0ff22
    Encoding settings                        : cabac=1 / ref=4 / deblock=1:0:0 / analyse=0x3:0x113 / me=umh / subme=8 / psy=1 / psy_rd=1.00:0.00 / mixed_ref=1 / me_range=16 / chroma_me=1 / trellis=2 / 8x8dct=1 / cqm=0 / deadzone=21,11 / fast_pskip=0 / chroma_qp_offset=-2 / threads=12 / lookahead_threads=2 / sliced_threads=0 / nr=0 / decimate=1 / interlaced=0 / bluray_compat=0 / constrained_intra=0 / bframes=3 / b_pyramid=2 / b_adapt=1 / b_bias=0 / direct=1 / weightb=1 / open_gop=0 / weightp=2 / keyint=250 / keyint_min=23 / scenecut=40 / intra_refresh=0 / rc_lookahead=50 / rc=2pass / mbtree=1 / bitrate=8656 / ratetol=1.0 / qcomp=0.60 / qpmin=0 / qpmax=69 / qpstep=4 / cplxblur=20.0 / qblur=0.5 / ip_ratio=1.40 / aq=1:1.00
    Default                                  : Yes
    Forced                                   : No

    Audio
    ID                                       : 2
    Format                                   : AC-3
    Format/Info                              : Audio Coding 3
    Format settings, Endianness              : Big
    Codec ID                                 : A_AC3
    Duration                                 : 1 h 26 min
    Bit rate mode                            : Constant
    Bit rate                                 : 384 kb/s
    Channel(s)                               : 2 channels
    Channel positions                        : Front: L R
    Sampling rate                            : 48.0 kHz
    Frame rate                               : 31.250 FPS (1536 SPF)
    Bit depth                                : 16 bits
    Compression mode                         : Lossy
    Stream size                              : 238 MiB (4%)
    Language                                 : English
    Service kind                             : Complete Main
    Default                                  : Yes
    Forced                                   : No
    舞娘杀手 Stripped.to.Kill.1987.1080p.BluRay.x264-GUACAMOLE 5.46GB-2.png

    游客,如果您要查看本帖隐藏内容请回复



    大中午的快困死蓝光君了
    回复

    使用道具 举报

    该用户从未签到

    0

    主题

    6743

    帖子

    6746

    积分

    论坛元老

    Rank: 8Rank: 8

    积分
    6746
    发表于 2019-7-24 09:57:29 | 显示全部楼层
    回复 支持 反对

    使用道具 举报

    该用户从未签到

    0

    主题

    2311

    帖子

    2314

    积分

    金牌会员

    Rank: 6Rank: 6

    积分
    2314
    发表于 2019-8-8 00:37:21 | 显示全部楼层
    回复 支持 反对

    使用道具 举报

    该用户从未签到

    0

    主题

    245

    帖子

    257

    积分

    中级会员

    Rank: 3Rank: 3

    积分
    257
    发表于 2019-8-29 23:14:16 | 显示全部楼层
    回复 支持 反对

    使用道具 举报

    该用户从未签到

    0

    主题

    1097

    帖子

    1107

    积分

    金牌会员

    Rank: 6Rank: 6

    积分
    1107
    发表于 2019-9-20 05:25:35 | 显示全部楼层
    回复 支持 反对

    使用道具 举报

    该用户从未签到

    0

    主题

    1717

    帖子

    1766

    积分

    金牌会员

    Rank: 6Rank: 6

    积分
    1766
    发表于 2019-9-23 04:50:33 | 显示全部楼层
    感谢楼主的无私分享!要想蓝光高清电影网好 就靠你我他
    回复 支持 反对

    使用道具 举报

    该用户从未签到

    0

    主题

    6743

    帖子

    6746

    积分

    论坛元老

    Rank: 8Rank: 8

    积分
    6746
    发表于 2019-11-1 22:57:09 | 显示全部楼层

    非常精彩的电影,下来收藏,感谢楼主
    回复 支持 反对

    使用道具 举报

    该用户从未签到

    0

    主题

    1万

    帖子

    1万

    积分

    论坛元老

    Rank: 8Rank: 8

    积分
    11423
    发表于 2019-11-6 16:00:54 | 显示全部楼层
    回复 支持 反对

    使用道具 举报

    该用户从未签到

    0

    主题

    307

    帖子

    276

    积分

    中级会员

    Rank: 3Rank: 3

    积分
    276
    发表于 2019-11-8 18:00:40 | 显示全部楼层

    是个好电影!必须要看的!多谢分享!
    回复 支持 反对

    使用道具 举报

    该用户从未签到

    0

    主题

    1万

    帖子

    1万

    积分

    论坛元老

    Rank: 8Rank: 8

    积分
    11423
    发表于 2019-11-23 03:33:04 | 显示全部楼层
    回复 支持 反对

    使用道具 举报

    懒得打字嘛,点击右侧快捷回复 【右侧内容,后台自定义】
    您需要登录后才可以回帖 登录 | 立即注册

    本版积分规则

    郑重声明,本站所有作品片源来自互联网公开渠道,均为网友上传交流学习,影视版权均归原电影公司所有,如有侵犯版权,请与 2322694662@qq.com 联系,我们将立即删除。

    小黑屋|手机版|Archiver|百度统计|投诉|蓝光电影下载

    GMT+8, 2021-1-19 00:05 , Processed in 0.046521 second(s), 20 queries , Gzip On, MemCached On.

    Powered by Discuz! X3.4

    © 2001-2013 Comsenz Inc.

    快速回复 返回顶部 返回列表