快捷导航
查看: 111|回复: 9

[恐怖] 邪靈再現 The.Curse.Of.Lilith.Ratchet.2018.720p.BluRay.x264-GETiT 4.37GB

[复制链接]
  • TA的每日心情
    开心
    2019-9-28 10:25
  • 签到天数: 231 天

    [LV.7]常住居民III

    6805

    主题

    7071

    帖子

    2万

    积分

    管理员

    蓝光君

    Rank: 9Rank: 9Rank: 9

    积分
    25302

    活跃会员热心会员推广达人突出贡献优秀版主荣誉管理论坛元老

    QQ
    发表于 2019-7-29 23:00:52 | 显示全部楼层 |阅读模式

    邪靈再現 The.Curse.Of.Lilith.Ratchet.2018.720p.BluRay.x264-GETiT 4.37GB-1.png

    译  名 邪靈再現(台)
    片  名 The Curse of Lilith Ratchet
    年  代 2018
    产  地 美国
    类  别 恐怖
    语  言 英语
    上映日期 2018-10-13(美国)
    IMDb评分  5.6/10 from 48 users
    IMDb链接  http://www.imdb.com/title/tt7358686
    豆瓣评分 0/10 from 0 users
    豆瓣链接 https://movie.douban.com/subject/33376218/
    导  演 Eddie Lengyel
    编  剧 Eddie Lengyel
    主  演 KateLynn E. Newberry
          Rob Jaeger
          Roger Conners


    简  介  

      Alice and her best friend Lauren inadvertently set a hellish curse in motion after surprisingly acquiring a mysterious shrunken head. Wanting to know more about their fiendish find, they pay a visit to a popular paranormal podcast host Hunter Perry of "Beyond the Veil". Hunter discovers it's true authenticity of the ages-old object and in hopes of creating a rating boost, he plans a LIVE podcast in which the tale of the shrunken head will be introduced to the masses. Little do they know by playing the game and calling her name they will release the malevolent demonic spirit of Lilith Ratchet.

    Video
    ID                                       : 1
    Format                                   : AVC
    Format/Info                              : Advanced Video Codec
    Format profile                           : [email protected]
    Format settings                          : CABAC / 5 Ref Frames
    Format settings, CABAC                   : Yes
    Format settings, Reference frames        : 5 frames
    Codec ID                                 : V_MPEG4/ISO/AVC
    Duration                                 : 1 h 43 min
    Bit rate                                 : 4 504 kb/s
    Width                                    : 1 280 pixels
    Height                                   : 720 pixels
    Display aspect ratio                     : 16:9
    Frame rate mode                          : Constant
    Frame rate                               : 23.976 (24000/1001) FPS
    Color space                              : YUV
    Chroma subsampling                       : 4:2:0
    Bit depth                                : 8 bits
    Scan type                                : Progressive
    Bits/(Pixel*Frame)                       : 0.204
    Stream size                              : 3.27 GiB (75%)
    Writing library                          : x264 core 157 r2969 d4099dd
    Encoding settings                        : cabac=1 / ref=5 / deblock=1:0:0 / analyse=0x3:0x133 / me=umh / subme=7 / psy=1 / psy_rd=1.00:0.00 / mixed_ref=1 / me_range=16 / chroma_me=1 / trellis=2 / 8x8dct=1 / cqm=0 / deadzone=21,11 / fast_pskip=0 / chroma_qp_offset=-2 / threads=9 / lookahead_threads=1 / sliced_threads=0 / nr=0 / decimate=1 / interlaced=0 / bluray_compat=0 / constrained_intra=0 / bframes=3 / b_pyramid=2 / b_adapt=1 / b_bias=0 / direct=3 / weightb=1 / open_gop=0 / weightp=2 / keyint=250 / keyint_min=23 / scenecut=40 / intra_refresh=0 / rc_lookahead=50 / rc=2pass / mbtree=1 / bitrate=4504 / ratetol=1.0 / qcomp=0.60 / qpmin=0 / qpmax=69 / qpstep=4 / cplxblur=20.0 / qblur=0.5 / ip_ratio=1.40 / aq=1:1.00
    Language                                 : English
    Default                                  : Yes
    Forced                                   : No

    Audio
    ID                                       : 2
    Format                                   : DTS
    Format/Info                              : Digital Theater Systems
    Codec ID                                 : A_DTS
    Duration                                 : 1 h 43 min
    Bit rate mode                            : Constant
    Bit rate                                 : 1 509 kb/s
    Channel(s)                               : 2 channels
    Channel layout                           : L R
    Sampling rate                            : 48.0 kHz
    Frame rate                               : 93.750 FPS (512 SPF)
    Bit depth                                : 24 bits
    Compression mode                         : Lossy
    Stream size                              : 1.10 GiB (25%)
    Title                                    : dts
    Language                                 : English
    Default                                  : Yes
    Forced                                   : No

    Menu
    00:00:00.000                             : en:00:00:00.000
    00:09:53.968                             : en:00:09:53.968
    00:23:05.968                             : en:00:23:05.968
    00:37:36.963                             : en:00:37:36.963
    00:48:45.965                             : en:00:48:45.965
    01:01:15.964                             : en:01:01:15.964
    01:14:01.896                             : en:01:14:01.896
    01:27:41.923                             : en:01:27:41.923
    01:41:53.983                             : en:01:41:53.983
    邪靈再現 The.Curse.Of.Lilith.Ratchet.2018.720p.BluRay.x264-GETiT 4.37GB-2.png

    游客,如果您要查看本帖隐藏内容请回复



    大中午的快困死蓝光君了
    回复

    使用道具 举报

    该用户从未签到

    0

    主题

    1744

    帖子

    34

    积分

    新手上路

    Rank: 1

    积分
    34
    发表于 2019-7-29 23:00:57 | 显示全部楼层
    回复 支持 反对

    使用道具 举报

    该用户从未签到

    0

    主题

    1662

    帖子

    883

    积分

    高级会员

    Rank: 4

    积分
    883
    发表于 2019-7-30 09:12:59 | 显示全部楼层
    回复 支持 反对

    使用道具 举报

    该用户从未签到

    0

    主题

    202

    帖子

    97

    积分

    注册会员

    Rank: 2

    积分
    97
    发表于 2019-8-11 20:48:33 | 显示全部楼层

    是个好电影!必须要看的!多谢分享!
    回复 支持 反对

    使用道具 举报

    该用户从未签到

    0

    主题

    6268

    帖子

    5105

    积分

    论坛元老

    Rank: 8Rank: 8

    积分
    5105
    发表于 2019-8-23 12:04:39 | 显示全部楼层
    这个帖子不回对不起自己!我想我是一天也不能离开蓝光电影网
    回复 支持 反对

    使用道具 举报

    该用户从未签到

    0

    主题

    521

    帖子

    18

    积分

    新手上路

    Rank: 1

    积分
    18
    发表于 2019-8-24 02:16:49 | 显示全部楼层
    回复 支持 反对

    使用道具 举报

    该用户从未签到

    0

    主题

    1662

    帖子

    883

    积分

    高级会员

    Rank: 4

    积分
    883
    发表于 2019-9-11 12:52:37 | 显示全部楼层
    回复 支持 反对

    使用道具 举报

    该用户从未签到

    0

    主题

    6268

    帖子

    5105

    积分

    论坛元老

    Rank: 8Rank: 8

    积分
    5105
    发表于 2019-9-20 02:32:44 | 显示全部楼层
    回复 支持 反对

    使用道具 举报

    该用户从未签到

    0

    主题

    6268

    帖子

    5105

    积分

    论坛元老

    Rank: 8Rank: 8

    积分
    5105
    发表于 2019-9-21 08:43:21 | 显示全部楼层

    非常精彩的电影,下来收藏,感谢楼主
    回复 支持 反对

    使用道具 举报

    该用户从未签到

    0

    主题

    2707

    帖子

    22

    积分

    新手上路

    Rank: 1

    积分
    22
    发表于 2019-10-11 13:22:18 | 显示全部楼层
    感谢楼主的无私分享!要想蓝光高清电影网好 就靠你我他
    回复 支持 反对

    使用道具 举报

    懒得打字嘛,点击右侧快捷回复 【右侧内容,后台自定义】
    您需要登录后才可以回帖 登录 | 立即注册

    本版积分规则

    郑重声明,本站所有作品片源来自互联网公开渠道,均为网友上传交流学习,影视版权均归原电影公司所有,如有侵犯版权,请与 2322694662@qq.com 联系,我们将立即删除。

    小黑屋|手机版|Archiver|百度统计|投诉|蓝光电影下载     

    GMT+8, 2019-10-24 10:38 , Processed in 0.051911 second(s), 22 queries , Gzip On, MemCache On.

    Powered by Discuz! X3.3

    © 2001-2013 Comsenz Inc.

    快速回复 返回顶部 返回列表