快捷导航
查看: 1218|回复: 16

我即闪电/我是博尔特 I.Am.Bolt.2016.PROPER.720p.BluRay.x264-ViRGO 4.36GB

[复制链接]
  • TA的每日心情
    开心
    2021-6-20 17:46
  • 签到天数: 247 天

    [LV.8]以坛为家I

    1万

    主题

    1万

    帖子

    12万

    积分

    管理员

    蓝光君

    Rank: 9Rank: 9Rank: 9

    积分
    123195

    活跃会员热心会员推广达人突出贡献优秀版主荣誉管理论坛元老

    QQ
    发表于 2019-9-9 21:31:20 | 显示全部楼层 |阅读模式

    我即闪电/我是博尔特 I.Am.Bolt.2016.PROPER.720p.BluRay.x264-ViRGO 4.36GB-1.png

    译  名 我即闪电 / 我是博尔特
    片  名 I Am Bolt
    年  代 2016
    产  地 英国
    类  别 纪录片 / 传记 / 运动
    语  言 英语
    上映日期 2016-11-28(德国)
    IMDb评分  7.1/10 from 2748 users
    IMDb链接  http://www.imdb.com/title/tt4647900
    豆瓣评分 8.1/10 from 487 users
    豆瓣链接 https://movie.douban.com/subject/26889793/
    片  长 107分钟
    导  演 盖布·特纳 Gabe Turner / 本杰明·特纳 Benjamin Turner
    主  演 尤塞恩·博尔特 Usain Bolt
           塞蕾娜·威廉姆斯 Serena Williams
           Ziggy Marley
           贝利 Pelé


    标  签 纪录片 | 体育 | 传记 | 博尔特 | 尤塞恩·博尔特 | 英国 | 2016 | Bolt

    简  介  

      The legacy of the fastest man in history, Usain Bolt.
    Video
    ID                                       : 1
    Format                                   : AVC
    Format/Info                              : Advanced Video Codec
    Format profile                           : [email protected]
    Format settings                          : CABAC / 5 Ref Frames
    Format settings, CABAC                   : Yes
    Format settings, Reference frames        : 5 frames
    Codec ID                                 : V_MPEG4/ISO/AVC
    Duration                                 : 1 h 48 min
    Bit rate                                 : 4 989 kb/s
    Width                                    : 1 280 pixels
    Height                                   : 720 pixels
    Display aspect ratio                     : 16:9
    Frame rate mode                          : Constant
    Frame rate                               : 23.976 (24000/1001) FPS
    Color space                              : YUV
    Chroma subsampling                       : 4:2:0
    Bit depth                                : 8 bits
    Scan type                                : Progressive
    Bits/(Pixel*Frame)                       : 0.226
    Stream size                              : 3.78 GiB (87%)
    Writing library                          : x264 core 157 r2970 5493be8
    Encoding settings                        : cabac=1 / ref=5 / deblock=1:0:0 / analyse=0x3:0x113 / me=umh / subme=7 / psy=1 / psy_rd=1.00:0.00 / mixed_ref=1 / me_range=16 / chroma_me=1 / trellis=1 / 8x8dct=1 / cqm=0 / deadzone=21,11 / fast_pskip=0 / chroma_qp_offset=-2 / threads=12 / lookahead_threads=2 / sliced_threads=0 / nr=0 / decimate=1 / interlaced=0 / bluray_compat=0 / constrained_intra=0 / bframes=3 / b_pyramid=2 / b_adapt=1 / b_bias=0 / direct=3 / weightb=1 / open_gop=0 / weightp=2 / keyint=240 / keyint_min=23 / scenecut=40 / intra_refresh=0 / rc_lookahead=50 / rc=2pass / mbtree=1 / bitrate=4989 / ratetol=1.0 / qcomp=0.60 / qpmin=0 / qpmax=69 / qpstep=4 / cplxblur=20.0 / qblur=0.5 / ip_ratio=1.40 / aq=1:1.00
    Language                                 : English
    Default                                  : Yes
    Forced                                   : No

    Audio
    ID                                       : 2
    Format                                   : DTS
    Format/Info                              : Digital Theater Systems
    Codec ID                                 : A_DTS
    Duration                                 : 1 h 48 min
    Bit rate mode                            : Constant
    Bit rate                                 : 768 kb/s
    Channel(s)                               : 6 channels
    Channel layout                           : C L R Ls Rs LFE
    Sampling rate                            : 48.0 kHz
    Frame rate                               : 93.750 FPS (512 SPF)
    Bit depth                                : 24 bits
    Compression mode                         : Lossy
    Stream size                              : 596 MiB (13%)
    Language                                 : English
    Default                                  : Yes
    Forced                                   : No

    Text #1
    ID                                       : 3
    Format                                   : UTF-8
    Codec ID                                 : S_TEXT/UTF8
    Codec ID/Info                            : UTF-8 Plain Text
    Duration                                 : 1 h 39 min
    Bit rate                                 : 9 b/s
    Count of elements                        : 181
    Stream size                              : 7.29 KiB (0%)
    Language                                 : English
    Default                                  : Yes
    Forced                                   : Yes

    Text #2
    ID                                       : 4
    Format                                   : UTF-8
    Codec ID                                 : S_TEXT/UTF8
    Codec ID/Info                            : UTF-8 Plain Text
    Duration                                 : 1 h 46 min
    Bit rate                                 : 84 b/s
    Count of elements                        : 1428
    Stream size                              : 66.2 KiB (0%)
    Language                                 : English
    Default                                  : No
    Forced                                   : No
    我即闪电/我是博尔特 I.Am.Bolt.2016.PROPER.720p.BluRay.x264-ViRGO 4.36GB-2.png

    游客,如果您要查看本帖隐藏内容请回复



    大中午的快困死蓝光君了
    回复

    使用道具 举报

    该用户从未签到

    0

    主题

    1876

    帖子

    1895

    积分

    金牌会员

    Rank: 6Rank: 6

    积分
    1895
    发表于 2019-10-8 07:52:55 | 显示全部楼层
    这个帖子不回对不起自己!我想我是一天也不能离开蓝光电影网
    回复 支持 反对

    使用道具 举报

    该用户从未签到

    0

    主题

    3万

    帖子

    2万

    积分

    论坛元老

    Rank: 8Rank: 8

    积分
    28148
    发表于 2019-10-24 02:07:07 | 显示全部楼层
    回复 支持 反对

    使用道具 举报

    该用户从未签到

    0

    主题

    2311

    帖子

    2314

    积分

    金牌会员

    Rank: 6Rank: 6

    积分
    2314
    发表于 2019-10-31 00:36:06 | 显示全部楼层
    回复 支持 反对

    使用道具 举报

    该用户从未签到

    0

    主题

    2万

    帖子

    1万

    积分

    论坛元老

    Rank: 8Rank: 8

    积分
    18385
    发表于 2019-11-8 23:28:08 | 显示全部楼层
    回复 支持 反对

    使用道具 举报

    该用户从未签到

    0

    主题

    1111

    帖子

    657

    积分

    高级会员

    Rank: 4

    积分
    657
    发表于 2019-11-14 06:34:58 | 显示全部楼层
    感谢楼主的无私分享!要想蓝光高清电影网好 就靠你我他
    回复 支持 反对

    使用道具 举报

    该用户从未签到

    0

    主题

    4396

    帖子

    3830

    积分

    论坛元老

    Rank: 8Rank: 8

    积分
    3830
    发表于 2019-11-16 20:15:38 | 显示全部楼层
    回复 支持 反对

    使用道具 举报

    该用户从未签到

    0

    主题

    4396

    帖子

    3830

    积分

    论坛元老

    Rank: 8Rank: 8

    积分
    3830
    发表于 2019-11-21 14:49:22 | 显示全部楼层

    是个好电影!必须要看的!多谢分享!
    回复 支持 反对

    使用道具 举报

    该用户从未签到

    0

    主题

    2万

    帖子

    1万

    积分

    论坛元老

    Rank: 8Rank: 8

    积分
    18385
    发表于 2019-11-23 04:46:21 | 显示全部楼层

    非常精彩的电影,下来收藏,感谢楼主
    回复 支持 反对

    使用道具 举报

    该用户从未签到

    0

    主题

    3万

    帖子

    2万

    积分

    论坛元老

    Rank: 8Rank: 8

    积分
    28148
    发表于 2019-11-23 18:43:57 | 显示全部楼层
    回复 支持 反对

    使用道具 举报

    懒得打字嘛,点击右侧快捷回复 【右侧内容,后台自定义】
    您需要登录后才可以回帖 登录 | 立即注册

    本版积分规则

    郑重声明,本站所有作品片源来自互联网公开渠道,均为网友上传交流学习,影视版权均归原电影公司所有,如有侵犯版权,请与 2322694662@qq.com 联系,我们将立即删除。

    小黑屋|手机版|Archiver|百度统计|投诉|蓝光电影下载

    GMT+8, 2021-9-26 04:53 , Processed in 0.080286 second(s), 20 queries , Gzip On, MemCached On.

    Powered by Discuz! X3.4

    © 2001-2013 Comsenz Inc.

    快速回复 返回顶部 返回列表