快捷导航
查看: 397|回复: 14

[动作] 疾速追杀/捍卫任务 John.Wick.2014.1080p.BluRay.x264-SPARKS 6.55GB

[复制链接]
  • TA的每日心情
    开心
    2020-2-15 21:32
  • 签到天数: 240 天

    [LV.8]以坛为家I

    1万

    主题

    1万

    帖子

    6万

    积分

    管理员

    蓝光君

    Rank: 9Rank: 9Rank: 9

    积分
    67830

    活跃会员热心会员推广达人突出贡献优秀版主荣誉管理论坛元老

    QQ
    发表于 2019-9-10 22:40:53 | 显示全部楼层 |阅读模式

    疾速追杀/捍卫任务 John.Wick.2014.1080p.BluRay.x264-SPARKS 6.55GB-1.png

    译  名 疾速追杀 / 捍卫任务(台) / 杀神(港) / 约翰·威克 / 还我狗命(豆友译名)
    片  名 John Wick
    年  代 2014
    产  地 美国
    类  别 动作 / 惊悚 / 犯罪
    语  言 英语 / 俄语 / 匈牙利语
    上映日期 2014-10-24(美国)
    IMDb评分  7.4/10 from 472508 users
    IMDb链接  http://www.imdb.com/title/tt2911666
    豆瓣评分 7.5/10 from 81445 users
    豆瓣链接 https://movie.douban.com/subject/25798131/
    片  长 101分钟
    导  演 大卫·里奇 David Leitch / 查德·史塔赫斯基 Chad Stahelski
    编  剧 德里克·科尔斯塔 Derek Kolstad
    主  演 基努·里维斯 Keanu Reeves
           迈克尔·恩奎斯特 Michael Nyqvist
           阿尔菲·艾伦 Alfie Allen
           威廉·达福 Willem Dafoe
           迪恩·文特斯 Dean Winters
           阿德琳妮·帕里奇 Adrianne Palicki
           奥默·巴尼亚 Omer Barnea
           托比·莱昂纳德·摩尔 Toby Leonard Moore
           丹尼尔·伯哈特 Daniel Bernhardt
           布丽姬·穆娜 Bridget Moynahan
           约翰·雷吉扎莫 John Leguizamo
           伊恩·麦柯肖恩 Ian McShane
           布里吉特·瑞根 Bridget Regan
           兰斯·莱迪克 Lance Reddick
           基思·雅各 Keith Jardine
           托马斯·萨多斯基 Thomas Sadoski
           克拉克·彼得斯 Clarke Peters
           兰德尔·杜克·金 Randall Duk Kim
           凯文·纳什 Kevin Nash
           大卫·帕特里克·凯利 David Patrick Kelly
           波·沙都 Paugh Shadow
           纳迪娅·凯 Nadia Kay
           凡妮莎·万德·普卢姆 Vanessa Vander Pluym


    标  签 动作 | 美国 | 暴力 | 犯罪 | 杀手 | 基努李维斯 | 黑帮 | 2014

    简  介  

      不久之前刚刚经历丧妻之痛的约翰·威克(基努·里维斯 Keanu Reeves 饰),未曾料到磨难与折磨接二连三袭来。他那辆1964年的福特老爷车被一伙俄罗斯小混混盯上,旋即引来对方入室抢劫,心爱的狗狗被当场杀死,约翰也遭到无情毒打,那辆老爷车自然被对方抢走。偷车的混混(阿尔菲·艾伦 Alfie Allen 饰)是黑帮大佬维格?塔拉索夫(迈克尔·恩奎斯特 Michael Nyqvist 饰)的儿子,而维格在听说这件事后显得紧张非常,因为约翰有着令人胆战心惊的身份。他曾是名震江湖的冷血杀手,当年替塔拉索夫杀掉不少难缠的对手,后来却为了妻子金盆洗手。
      愤怒至极的约翰拒绝塔拉索夫的调解,他决定单枪匹马展开复仇……
    Video
    ID                                       : 1
    Format                                   : AVC
    Format/Info                              : Advanced Video Codec
    Format profile                           : [email protected]
    Format settings, CABAC                   : Yes
    Format settings, ReFrames                : 5 frames
    Codec ID                                 : V_MPEG4/ISO/AVC
    Duration                                 : 1h 41mn
    Bit rate                                 : 8 631 Kbps
    Width                                    : 1 920 pixels
    Height                                   : 800 pixels
    Display aspect ratio                     : 2.40:1
    Frame rate mode                          : Constant
    Frame rate                               : 23.976 fps
    Color space                              : YUV
    Chroma subsampling                       : 4:2:0
    Bit depth                                : 8 bits
    Scan type                                : Progressive
    Bits/(Pixel*Frame)                       : 0.234
    Stream size                              : 5.97 GiB (91%)
    Writing library                          : x264 core 144 r2525 40bb568
    Encoding settings                        : cabac=1 / ref=5 / deblock=1:0:0 / analyse=0x3:0x133 / me=umh / subme=7 / psy=1 / psy_rd=1.00:0.00 / mixed_ref=1 / me_range=16 / chroma_me=1 / trellis=1 / 8x8dct=1 / cqm=0 / deadzone=21,11 / fast_pskip=0 / chroma_qp_offset=-2 / threads=60 / lookahead_threads=6 / sliced_threads=0 / nr=0 / decimate=1 / interlaced=0 / bluray_compat=0 / constrained_intra=0 / bframes=3 / b_pyramid=2 / b_adapt=1 / b_bias=0 / direct=1 / weightb=1 / open_gop=0 / weightp=2 / keyint=250 / keyint_min=23 / scenecut=40 / intra_refresh=0 / rc_lookahead=40 / rc=2pass / mbtree=1 / bitrate=8631 / ratetol=1.0 / qcomp=0.60 / qpmin=0 / qpmax=69 / qpstep=4 / cplxblur=20.0 / qblur=0.5 / ip_ratio=1.40 / aq=1:1.00
    Language                                 : English
    Default                                  : Yes
    Forced                                   : No

    Audio
    ID                                       : 2
    Format                                   : AC-3
    Format/Info                              : Audio Coding 3
    Mode extension                           : CM (complete main)
    Format settings, Endianness              : Big
    Codec ID                                 : A_AC3
    Duration                                 : 1h 41mn
    Bit rate mode                            : Constant
    Bit rate                                 : 640 Kbps
    Channel(s)                               : 6 channels
    Channel positions                        : Front: L C R, Side: L R, LFE
    Sampling rate                            : 48.0 KHz
    Bit depth                                : 16 bits
    Compression mode                         : Lossy
    Stream size                              : 463 MiB (7%)
    Language                                 : English
    Default                                  : Yes
    Forced                                   : No

    Menu
    00:00:00.000                             : en:00:00:00.000
    00:04:57.506                             : en:00:04:57.506
    00:12:21.866                             : en:00:12:21.866
    00:17:07.735                             : en:00:17:07.735
    00:26:25.167                             : en:00:26:25.167
    00:32:40.250                             : en:00:32:40.250
    00:36:24.599                             : en:00:36:24.599
    00:42:16.033                             : en:00:42:16.033
    00:45:33.272                             : en:00:45:33.272
    00:55:02.507                             : en:00:55:02.507
    00:59:27.564                             : en:00:59:27.564
    01:06:13.428                             : en:01:06:13.428
    01:14:15.910                             : en:01:14:15.910
    01:19:13.040                             : en:01:19:13.040
    01:27:29.786                             : en:01:27:29.786
    01:32:24.789                             : en:01:32:24.789
    疾速追杀/捍卫任务 John.Wick.2014.1080p.BluRay.x264-SPARKS 6.55GB-2.png
    游客,如果您要查看本帖隐藏内容请回复




    大中午的快困死蓝光君了
    回复

    使用道具 举报

    该用户从未签到

    0

    主题

    726

    帖子

    746

    积分

    高级会员

    Rank: 4

    积分
    746
    发表于 2019-9-20 19:03:41 | 显示全部楼层
    回复 支持 反对

    使用道具 举报

    该用户从未签到

    0

    主题

    1万

    帖子

    1万

    积分

    论坛元老

    Rank: 8Rank: 8

    积分
    16484
    发表于 2019-9-29 18:24:17 | 显示全部楼层
    回复 支持 反对

    使用道具 举报

    该用户从未签到

    0

    主题

    1万

    帖子

    1万

    积分

    论坛元老

    Rank: 8Rank: 8

    积分
    10325
    发表于 2019-11-6 18:38:32 | 显示全部楼层
    回复 支持 反对

    使用道具 举报

    该用户从未签到

    0

    主题

    503

    帖子

    438

    积分

    中级会员

    Rank: 3Rank: 3

    积分
    438
    发表于 2019-11-23 20:20:00 | 显示全部楼层
    回复 支持 反对

    使用道具 举报

    该用户从未签到

    0

    主题

    1万

    帖子

    1万

    积分

    论坛元老

    Rank: 8Rank: 8

    积分
    11423
    发表于 2019-12-3 14:59:21 | 显示全部楼层

    非常精彩的电影,下来收藏,感谢楼主
    回复 支持 反对

    使用道具 举报

    该用户从未签到

    0

    主题

    1万

    帖子

    1万

    积分

    论坛元老

    Rank: 8Rank: 8

    积分
    16484
    发表于 2019-12-3 23:24:10 | 显示全部楼层

    是个好电影!必须要看的!多谢分享!
    回复 支持 反对

    使用道具 举报

    该用户从未签到

    0

    主题

    1万

    帖子

    1万

    积分

    论坛元老

    Rank: 8Rank: 8

    积分
    11423
    发表于 2019-12-3 23:38:39 | 显示全部楼层
    楼主太厉害了!楼主,电影应该很好看我觉得蓝光电影下载真是个好地方!
    回复 支持 反对

    使用道具 举报

    该用户从未签到

    0

    主题

    7088

    帖子

    6879

    积分

    论坛元老

    Rank: 8Rank: 8

    积分
    6879
    发表于 2019-12-14 21:07:54 | 显示全部楼层
    回复 支持 反对

    使用道具 举报

    该用户从未签到

    0

    主题

    1万

    帖子

    1万

    积分

    论坛元老

    Rank: 8Rank: 8

    积分
    11423
    发表于 2020-1-7 14:50:04 | 显示全部楼层
    回复 支持 反对

    使用道具 举报

    懒得打字嘛,点击右侧快捷回复 【右侧内容,后台自定义】
    您需要登录后才可以回帖 登录 | 立即注册

    本版积分规则

    郑重声明,本站所有作品片源来自互联网公开渠道,均为网友上传交流学习,影视版权均归原电影公司所有,如有侵犯版权,请与 2322694662@qq.com 联系,我们将立即删除。

    小黑屋|手机版|Archiver|百度统计|投诉|蓝光电影下载

    GMT+8, 2021-1-19 21:56 , Processed in 0.044872 second(s), 20 queries , Gzip On, MemCached On.

    Powered by Discuz! X3.4

    © 2001-2013 Comsenz Inc.

    快速回复 返回顶部 返回列表