快捷导航
查看: 47|回复: 1

[剧情] 底层生活/群氓 Riff.Raff.1991.1080p.BluRay.x264-PHOBOS 6.56GB

[复制链接]
  • TA的每日心情
    开心
    2019-9-28 10:25
  • 签到天数: 231 天

    [LV.7]常住居民III

    6805

    主题

    7071

    帖子

    2万

    积分

    管理员

    蓝光君

    Rank: 9Rank: 9Rank: 9

    积分
    25298

    活跃会员热心会员推广达人突出贡献优秀版主荣誉管理论坛元老

    QQ
    发表于 2019-9-22 22:10:18 | 显示全部楼层 |阅读模式


    底层生活/群氓 Riff.Raff.1991.1080p.BluRay.x264-PHOBOS 6.56GB-1.png

    译  名 底层生活 / 群氓
    片  名 Riff-Raff
    年  代 1991
    产  地 英国
    类  别 剧情 / 喜剧
    语  言 英语
    上映日期 1991-06-21
    IMDb评分  7.1/10 from 3719 users
    IMDb链接  http://www.imdb.com/title/tt0100491
    豆瓣评分 7.2/10 from 101 users
    豆瓣链接 https://movie.douban.com/subject/1295364/
    片  长 95 分钟
    导  演 Ken Loach
    编  剧 Bill Jesse
    主  演 Robert Carlyle
           Emer McCourt
           Richard Belgrave
           Jim R. Coleman


    标  签 英国 | 英国电影 | 肯·洛奇 | KenLoach | Ken_Loach | 1990s | 黑色 | 1991

    简  介  

      生活在大都会底层的人们忍受着微薄的工资,为了糊口而辛勤出卖劳力,有些人甚至连个睡觉的地方都没有,史特维就是个鲜明例子。他在出狱后从北部的格拉斯哥到伦敦找工作,结果在建筑工地找到了一份临时工。里班米克是个霸道的家伙,工人们得乖乖听命。史特维深感在伦敦讨生活很不容易。一天他在上班途中捡到一个手提袋,因而认识想一圆歌星梦的苏珊,但在现实生活中她是个失业而又喝药的失败者。

    获奖情况  

      第44届戛纳电影节(1991)
      费比西奖 肯·洛奇
    1. Video
    2. ID                                       : 1
    3. Format                                   : AVC
    4. Format/Info                              : Advanced Video Codec
    5. Format profile                           : High@L4
    6. Format settings                          : CABAC / 4 Ref Frames
    7. Format settings, CABAC                   : Yes
    8. Format settings, Reference frames        : 4 frames
    9. Codec ID                                 : V_MPEG4/ISO/AVC
    10. Duration                                 : 1 h 35 min
    11. Bit rate                                 : 9 013 kb/s
    12. Width                                    : 1 440 pixels
    13. Height                                   : 1 080 pixels
    14. Display aspect ratio                     : 4:3
    15. Frame rate mode                          : Constant
    16. Frame rate                               : 24.000 FPS
    17. Color space                              : YUV
    18. Chroma subsampling                       : 4:2:0
    19. Bit depth                                : 8 bits
    20. Scan type                                : Progressive
    21. Bits/(Pixel*Frame)                       : 0.241
    22. Stream size                              : 6.04 GiB (92%)
    23. Writing library                          : x264 core 146 r2538 121396c
    24. Encoding settings                        : cabac=1 / ref=4 / deblock=1:0:0 / analyse=0x3:0x133 / me=umh / subme=8 / psy=1 / psy_rd=1.00:0.00 / mixed_ref=1 / me_range=16 / chroma_me=1 / trellis=1 / 8x8dct=1 / cqm=0 / deadzone=21,11 / fast_pskip=0 / chroma_qp_offset=-2 / threads=12 / lookahead_threads=2 / sliced_threads=0 / nr=0 / decimate=1 / interlaced=0 / bluray_compat=0 / constrained_intra=0 / bframes=3 / b_pyramid=2 / b_adapt=1 / b_bias=0 / direct=1 / weightb=1 / open_gop=0 / weightp=2 / keyint=250 / keyint_min=24 / scenecut=40 / intra_refresh=0 / rc_lookahead=40 / rc=2pass / mbtree=1 / bitrate=9013 / ratetol=1.0 / qcomp=0.60 / qpmin=0 / qpmax=69 / qpstep=4 / cplxblur=20.0 / qblur=0.5 / ip_ratio=1.40 / aq=1:1.00
    25. Language                                 : English
    26. Default                                  : Yes
    27. Forced                                   : No

    28. Audio
    29. ID                                       : 2
    30. Format                                   : DTS
    31. Format/Info                              : Digital Theater Systems
    32. Codec ID                                 : A_DTS
    33. Duration                                 : 1 h 35 min
    34. Bit rate mode                            : Constant
    35. Bit rate                                 : 768 kb/s
    36. Channel(s)                               : 1 channel
    37. Channel layout                           : C
    38. Sampling rate                            : 48.0 kHz
    39. Frame rate                               : 93.750 FPS (512 SPF)
    40. Bit depth                                : 24 bits
    41. Compression mode                         : Lossy
    42. Stream size                              : 527 MiB (8%)
    43. Language                                 : English
    44. Default                                  : Yes
    45. Forced                                   : No
    复制代码

    底层生活/群氓 Riff.Raff.1991.1080p.BluRay.x264-PHOBOS 6.56GB-2.png 底层生活/群氓 Riff.Raff.1991.1080p.BluRay.x264-PHOBOS 6.56GB-3.png 底层生活/群氓 Riff.Raff.1991.1080p.BluRay.x264-PHOBOS 6.56GB-4.png
    游客,如果您要查看本帖隐藏内容请回复




    大中午的快困死蓝光君了
    回复

    使用道具 举报

    该用户从未签到

    0

    主题

    235

    帖子

    18

    积分

    新手上路

    Rank: 1

    积分
    18
    发表于 2019-10-2 04:55:52 | 显示全部楼层
    回复 支持 反对

    使用道具 举报

    懒得打字嘛,点击右侧快捷回复 【右侧内容,后台自定义】
    您需要登录后才可以回帖 登录 | 立即注册

    本版积分规则

    郑重声明,本站所有作品片源来自互联网公开渠道,均为网友上传交流学习,影视版权均归原电影公司所有,如有侵犯版权,请与 2322694662@qq.com 联系,我们将立即删除。

    小黑屋|手机版|Archiver|百度统计|投诉|蓝光电影下载     

    GMT+8, 2019-10-24 09:57 , Processed in 0.040830 second(s), 21 queries , Gzip On, MemCache On.

    Powered by Discuz! X3.3

    © 2001-2013 Comsenz Inc.

    快速回复 返回顶部 返回列表