快捷导航
查看: 782|回复: 23

[动画] 穿越时空的少女 The.Girl.Who.Leapt.Through.Time.2006.JAPANESE.1080p.BluRay.x264.DTS-PbK

[复制链接]
  • TA的每日心情
    开心
    2020-2-15 21:32
  • 签到天数: 240 天

    [LV.8]以坛为家I

    1万

    主题

    1万

    帖子

    3万

    积分

    管理员

    蓝光君

    Rank: 9Rank: 9Rank: 9

    积分
    37020

    活跃会员热心会员推广达人突出贡献优秀版主荣誉管理论坛元老

    QQ
    发表于 2019-11-3 22:06:02 | 显示全部楼层 |阅读模式
    穿越时空的少女 The.Girl.Who.Leapt.Through.Time.2006.JAPANESE.1080p.BluRay.x264.DTS-PbK-1.png

    译  名 穿越时空的少女 / The Girl Who Leapt Through Time / Toki o kakeru sh?jo / 跳跃吧!时空少女(台)
    片  名 時をかける少女
    年  代 2006
    产  地 日本
    类  别 剧情 / 爱情 / 科幻 / 动画
    语  言 日语
    上映日期 2006-07-15(日本)
    IMDb评分  7.8/10 from 54013 users
    IMDb链接  http://www.imdb.com/title/tt0808506
    豆瓣评分 8.6/10 from 258783 users
    豆瓣链接 https://movie.douban.com/subject/1937946/
    片  长 98分钟
    导  演 细田守 Mamoru Hosoda
    编  剧 奥寺佐渡子 Satoko Okudera / 筒井康隆 Yasutaka Tsutsui
    主  演 仲里依纱 Riisa Naka
           石田卓也 Takuya Ishida
           板仓光隆 Mitsutaka Itakura
           垣内彩未 Ayami Kakiuchi
           谷村美月 Mitsuki Tanimura
           关户优希 Yuki Sekido
           桂歌若
           安藤绿
           立木文彦 Fumihiko Tachiki
           山本圭子 Keiko Yamamoto
           反田孝幸 Takayuki Sorita
           谷川清美 Kiyomi Tanigawa
           汤屋敦子 Atsuko Yuya
           松田洋治 Y?ji Matsuda
           中村正 Tadashi Nakamura
           原沙知绘 Sachie Hara


    标  签 动画 | 日本 | 青春 | 穿越时空的少女 | 日本动画 | 爱情 | 动漫 | 科幻

    简  介  

      17岁少女绀野真琴是一个活泼跳脱的少女。在一次普通值日工作中,真琴不小心摔倒了,自此她发现自己拥有了穿越时空的能力。她兴奋不已,掌握了穿越时空的方法后,她经常用这个方法去解决生活中许多令她困扰十分的事。
      喜欢棒球的真琴与同班的两名男生千昭与功介有着共同爱好。一天,与她本是好朋友的千昭突然向她表达爱意,手足无措了她再次穿越时空希望可以躲避这件事的发生。但没想到,千昭会跟同学友梨在一起了,而友梨也是一直喜欢千昭的。此时,暗恋功介的果穗误以为真琴是功介的女友。
      为了帮忙解决朋友的问题,真琴不断以同样的方法回到过去。她突然发现自己手臂上的数字原来是穿越时空的次数,次数变得越来越少,与此同时她也发现了千昭的秘密……

    获奖情况  

      第30届日本电影学院奖(2007)
      最佳动画片

      第31届报知映画赏(2006)
      特别奖 细田守
    1. Video
    2. ID                                       : 1
    3. Format                                   : AVC
    4. Format/Info                              : Advanced Video Codec
    5. Format profile                           : High@L4
    6. Format settings                          : CABAC / 5 Ref Frames
    7. Format settings, CABAC                   : Yes
    8. Format settings, Reference frames        : 5 frames
    9. Codec ID                                 : V_MPEG4/ISO/AVC
    10. Duration                                 : 1 h 38 min
    11. Bit rate                                 : 8 404 kb/s
    12. Width                                    : 1 920 pixels
    13. Height                                   : 1 080 pixels
    14. Display aspect ratio                     : 16:9
    15. Frame rate mode                          : Constant
    16. Frame rate                               : 23.976 (24000/1001) FPS
    17. Color space                              : YUV
    18. Chroma subsampling                       : 4:2:0
    19. Bit depth                                : 8 bits
    20. Scan type                                : Progressive
    21. Bits/(Pixel*Frame)                       : 0.169
    22. Stream size                              : 5.81 GiB (85%)
    23. Title                                    : The.Girl.Who.Leapt.Through.Time.2006.JAPANESE.1080p.BluRay.x264.DTS-PbK
    24. Writing library                          : x264 core 148 r2692+46 0f71ed5 7mod [High@L4 X86_64]
    25. Encoding settings                        : cabac=1 / ref=5 / deblock=1:-3:-3 / analyse=0x3:0x113 / me=umh / subme=11 / psy=1 / fade_compensate=0.00 / psy_rd=1.00:0.00 / mixed_ref=1 / me_range=48 / chroma_me=1 / trellis=2 / 8x8dct=1 / cqm=0 / deadzone=11,6 / fast_pskip=0 / chroma_qp_offset=-2 / threads=12 / lookahead_threads=2 / sliced_threads=0 / nr=0 / decimate=0 / interlaced=0 / bluray_compat=0 / constrained_intra=0 / fgo=0 / bframes=8 / b_pyramid=2 / b_adapt=2 / b_bias=0 / direct=3 / weightb=1 / open_gop=0 / weightp=2 / keyint=250 / keyint_min=23 / scenecut=40 / intra_refresh=0 / rc_lookahead=60 / rc=crf / mbtree=0 / crf=17.3000 / qcomp=0.60 / qpmin=0:0:0 / qpmax=32:32:32 / qpstep=4 / vbv_maxrate=40000 / vbv_bufsize=30000 / crf_max=0.0 / nal_hrd=none / filler=0 / ip_ratio=1.30 / pb_ratio=1.20 / aq=4:0.80 / aq-sensitivity=10.00 / aq-factor=1.00:1.00:1.00 / aq2=0 / aq3=0
    26. Language                                 : Japanese
    27. Default                                  : Yes
    28. Forced                                   : No
    29. Color range                              : Limited
    30. Color primaries                          : BT.709
    31. Transfer characteristics                 : BT.709
    32. Matrix coefficients                      : BT.709

    33. Audio
    34. ID                                       : 2
    35. Format                                   : DTS
    36. Format/Info                              : Digital Theater Systems
    37. Codec ID                                 : A_DTS
    38. Duration                                 : 1 h 38 min
    39. Bit rate mode                            : Constant
    40. Bit rate                                 : 1 509 kb/s
    41. Channel(s)                               : 6 channels
    42. Channel layout                           : C L R Ls Rs LFE
    43. Sampling rate                            : 48.0 kHz
    44. Frame rate                               : 93.750 FPS (512 SPF)
    45. Bit depth                                : 16 bits
    46. Compression mode                         : Lossy
    47. Stream size                              : 1.04 GiB (15%)
    48. Title                                    : The.Girl.Who.Leapt.Through.Time.2006.JAPANESE.1080p.BluRay.x264.DTS-PbK
    49. Language                                 : Japanese
    50. Default                                  : Yes
    51. Forced                                   : No

    52. Text #1
    53. ID                                       : 3
    54. Format                                   : UTF-8
    55. Codec ID                                 : S_TEXT/UTF8
    56. Codec ID/Info                            : UTF-8 Plain Text
    57. Duration                                 : 1 h 37 min
    58. Bit rate                                 : 58 b/s
    59. Count of elements                        : 1398
    60. Stream size                              : 41.7 KiB (0%)
    61. Language                                 : English
    62. Default                                  : Yes
    63. Forced                                   : No

    64. Text #2
    65. ID                                       : 4
    66. Format                                   : UTF-8
    67. Codec ID                                 : S_TEXT/UTF8
    68. Codec ID/Info                            : UTF-8 Plain Text
    69. Duration                                 : 1 h 37 min
    70. Bit rate                                 : 58 b/s
    71. Count of elements                        : 1398
    72. Stream size                              : 41.7 KiB (0%)
    73. Default                                  : No
    74. Forced                                   : No

    75. Menu
    76. 00:00:00.000                             : en:00:00:00.000
    77. 00:05:38.547                             : en:00:05:38.547
    78. 00:11:40.491                             : en:00:11:40.491
    79. 00:16:20.354                             : en:00:16:20.354
    80. 00:23:46.216                             : en:00:23:46.216
    81. 00:29:07.913                             : en:00:29:07.913
    82. 00:36:47.997                             : en:00:36:47.997
    83. 00:45:19.175                             : en:00:45:19.175
    84. 00:51:17.574                             : en:00:51:17.574
    85. 00:57:20.771                             : en:00:57:20.771
    86. 01:16:57.154                             : en:01:16:57.154
    87. 01:32:14.612                             : en:01:32:14.612
    复制代码

    穿越时空的少女 The.Girl.Who.Leapt.Through.Time.2006.JAPANESE.1080p.BluRay.x264.DTS-PbK-3.png 穿越时空的少女 The.Girl.Who.Leapt.Through.Time.2006.JAPANESE.1080p.BluRay.x264.DTS-PbK-4.png

    游客,如果您要查看本帖隐藏内容请回复



    大中午的快困死蓝光君了
    回复

    使用道具 举报

    该用户从未签到

    0

    主题

    1万

    帖子

    1万

    积分

    论坛元老

    Rank: 8Rank: 8

    积分
    18929
    发表于 2019-11-3 22:06:19 | 显示全部楼层

    是个好电影!必须要看的!多谢分享!
    回复 支持 反对

    使用道具 举报

    该用户从未签到

    0

    主题

    1万

    帖子

    1万

    积分

    论坛元老

    Rank: 8Rank: 8

    积分
    12133
    发表于 2019-11-4 01:08:30 | 显示全部楼层
    回复 支持 反对

    使用道具 举报

    该用户从未签到

    0

    主题

    1万

    帖子

    1万

    积分

    论坛元老

    Rank: 8Rank: 8

    积分
    18929
    发表于 2019-11-4 09:52:08 | 显示全部楼层
    回复 支持 反对

    使用道具 举报

    该用户从未签到

    0

    主题

    2317

    帖子

    1761

    积分

    金牌会员

    Rank: 6Rank: 6

    积分
    1761
    发表于 2019-11-4 09:52:47 | 显示全部楼层
    楼主太厉害了!楼主,电影应该很好看我觉得蓝光电影下载真是个好地方!
    回复 支持 反对

    使用道具 举报

    该用户从未签到

    0

    主题

    2568

    帖子

    876

    积分

    高级会员

    Rank: 4

    积分
    876
    发表于 2019-11-4 09:52:47 | 显示全部楼层
    回复 支持 反对

    使用道具 举报

    该用户从未签到

    0

    主题

    1万

    帖子

    1万

    积分

    论坛元老

    Rank: 8Rank: 8

    积分
    12133
    发表于 2019-11-4 14:59:14 | 显示全部楼层
    回复 支持 反对

    使用道具 举报

    该用户从未签到

    0

    主题

    976

    帖子

    438

    积分

    中级会员

    Rank: 3Rank: 3

    积分
    438
    发表于 2019-11-4 21:51:06 | 显示全部楼层
    回复 支持 反对

    使用道具 举报

    该用户从未签到

    0

    主题

    2568

    帖子

    876

    积分

    高级会员

    Rank: 4

    积分
    876
    发表于 2019-11-4 21:51:25 | 显示全部楼层
    回复 支持 反对

    使用道具 举报

    懒得打字嘛,点击右侧快捷回复 【右侧内容,后台自定义】
    您需要登录后才可以回帖 登录 | 立即注册

    本版积分规则

    郑重声明,本站所有作品片源来自互联网公开渠道,均为网友上传交流学习,影视版权均归原电影公司所有,如有侵犯版权,请与 2322694662@qq.com 联系,我们将立即删除。

    小黑屋|手机版|Archiver|百度统计|投诉|蓝光电影下载

    GMT+8, 2020-4-5 14:10 , Processed in 0.061570 second(s), 23 queries , Gzip On, MemCached On.

    Powered by Discuz! X3.4

    © 2001-2013 Comsenz Inc.

    快速回复 返回顶部 返回列表