快捷导航
查看: 845|回复: 29

[动作] 恶人传 The.Gangster.the.Cop.the.Devil.2019.1080p.BluRay.x264-JRP 9.85GB

[复制链接]
  • TA的每日心情
    开心
    2020-2-15 21:32
  • 签到天数: 240 天

    [LV.8]以坛为家I

    1万

    主题

    1万

    帖子

    3万

    积分

    管理员

    蓝光君

    Rank: 9Rank: 9Rank: 9

    积分
    37086

    活跃会员热心会员推广达人突出贡献优秀版主荣誉管理论坛元老

    QQ
    发表于 2019-11-16 10:09:11 | 显示全部楼层 |阅读模式
    恶人传 The.Gangster.the.Cop.the.Devil.2019.1080p.BluRay.x264-JRP 9.85GB-1.png

    译  名 恶人传 / The Gangster, The Cop, The Devil / 恶霸?魔警?杀人狂(港) / 极恶对决(台)
    片  名 ???
    年  代 2019
    产  地 韩国
    类  别 剧情 / 动作 / 犯罪
    语  言 韩语
    上映日期 2019-05-15(韩国)
    IMDb评分  6.9/10 from 1549 users
    IMDb链接  http://www.imdb.com/title/tt10208198
    豆瓣评分 7.7/10 from 122614 users
    豆瓣链接 https://movie.douban.com/subject/30211551/
    片  长 109分钟
    导  演 李元泰 Won-tae Lee
    编  剧 李元泰 Won-tae Lee
    主  演 马东锡 Tong-Seok Ma
           金武烈 Moo-yeol Kim
           金成圭 Seong-gyoo Kim
           刘承睦 Yoo Seung-Mok
           崔民哲 Min-cheol Choi
           金胤成 Kim Yoon-seong
           许栋元 Heo Dong-won
           吴熙俊 Hee-joon Oh
           杨志洙 Ji-soo Yang
           金桀 Kim Kyoul
           李恩泉 Eun-saem Lee
           刘在明 Jae-myung Yoo


    标  签 韩国 | 犯罪 | 暴力 | 动作 | 警匪 | 人性 | 悬疑 | 2019

    简  介  

      罪犯头目张东洙(Don Lee)被一名神秘莫测的连环杀手暴力袭击之后幸存,与当地警探郑泰硕(Kim Moo Yul)形成了一种奇妙的搭档关系,联手捕捉被称为“K”的虐待狂杀手”。
    1. Video
    2. ID                                       : 1
    3. Format                                   : AVC
    4. Format/Info                              : Advanced Video Codec
    5. Format profile                           : High@L4
    6. Format settings                          : CABAC / 5 Ref Frames
    7. Format settings, CABAC                   : Yes
    8. Format settings, Reference frames        : 5 frames
    9. Codec ID                                 : V_MPEG4/ISO/AVC
    10. Duration                                 : 1 h 49 min
    11. Bit rate                                 : 11.3 Mb/s
    12. Width                                    : 1 920 pixels
    13. Height                                   : 800 pixels
    14. Display aspect ratio                     : 2.40:1
    15. Frame rate mode                          : Constant
    16. Frame rate                               : 24.000 FPS
    17. Color space                              : YUV
    18. Chroma subsampling                       : 4:2:0
    19. Bit depth                                : 8 bits
    20. Scan type                                : Progressive
    21. Bits/(Pixel*Frame)                       : 0.307
    22. Stream size                              : 8.68 GiB (88%)
    23. Writing library                          : x264 core 158 r2984 3759fcb
    24. Encoding settings                        : cabac=1 / ref=5 / deblock=1:0:0 / analyse=0x3:0x133 / me=umh / subme=7 / psy=1 / psy_rd=1.00:0.00 / mixed_ref=1 / me_range=16 / chroma_me=1 / trellis=2 / 8x8dct=1 / cqm=0 / deadzone=21,11 / fast_pskip=0 / chroma_qp_offset=-2 / threads=12 / lookahead_threads=2 / sliced_threads=0 / nr=0 / decimate=1 / interlaced=0 / bluray_compat=0 / constrained_intra=0 / bframes=3 / b_pyramid=2 / b_adapt=1 / b_bias=0 / direct=3 / weightb=1 / open_gop=0 / weightp=2 / keyint=250 / keyint_min=24 / scenecut=40 / intra_refresh=0 / rc_lookahead=50 / rc=2pass / mbtree=1 / bitrate=11308 / ratetol=1.0 / qcomp=0.60 / qpmin=0 / qpmax=69 / qpstep=4 / cplxblur=20.0 / qblur=0.5 / ip_ratio=1.40 / aq=1:1.00
    25. Language                                 : Korean
    26. Default                                  : Yes
    27. Forced                                   : No

    28. Audio
    29. ID                                       : 2
    30. Format                                   : DTS
    31. Format/Info                              : Digital Theater Systems
    32. Codec ID                                 : A_DTS
    33. Duration                                 : 1 h 49 min
    34. Bit rate mode                            : Constant
    35. Bit rate                                 : 1 509 kb/s
    36. Channel(s)                               : 6 channels
    37. Channel layout                           : C L R Ls Rs LFE
    38. Sampling rate                            : 48.0 kHz
    39. Frame rate                               : 93.750 FPS (512 SPF)
    40. Bit depth                                : 16 bits
    41. Compression mode                         : Lossy
    42. Stream size                              : 1.16 GiB (12%)
    43. Language                                 : Korean
    44. Default                                  : Yes
    45. Forced                                   : No

    46. Text
    47. ID                                       : 3
    48. Format                                   : UTF-8
    49. Codec ID                                 : S_TEXT/UTF8
    50. Codec ID/Info                            : UTF-8 Plain Text
    51. Duration                                 : 1 h 44 min
    52. Bit rate                                 : 52 b/s
    53. Count of elements                        : 1324
    54. Stream size                              : 40.4 KiB (0%)
    55. Language                                 : English
    56. Default                                  : Yes
    57. Forced                                   : No

    58. Menu
    59. 00:00:00.000                             : en:Chapter 01
    60. 00:09:32.875                             : en:Chapter 02
    61. 00:18:25.750                             : en:Chapter 03
    62. 00:26:37.458                             : en:Chapter 04
    63. 00:37:36.625                             : en:Chapter 05
    64. 00:47:04.458                             : en:Chapter 06
    65. 01:01:17.083                             : en:Chapter 07
    66. 01:11:17.125                             : en:Chapter 08
    67. 01:20:57.583                             : en:Chapter 09
    68. 01:32:52.833                             : en:Chapter 10
    69. 01:45:46.500                             : en:Chapter 11
    70. 01:49:53.916                             : en:Chapter 12
    复制代码

    游客,如果您要查看本帖隐藏内容请回复




    大中午的快困死蓝光君了
    回复

    使用道具 举报

    该用户从未签到

    0

    主题

    1万

    帖子

    1万

    积分

    论坛元老

    Rank: 8Rank: 8

    积分
    18929
    发表于 2019-11-16 10:09:20 | 显示全部楼层
    回复 支持 反对

    使用道具 举报

    该用户从未签到

    0

    主题

    297

    帖子

    34

    积分

    新手上路

    Rank: 1

    积分
    34
    发表于 2019-11-16 10:17:44 | 显示全部楼层
    感谢楼主的无私分享!要想蓝光高清电影网好 就靠你我他
    回复 支持 反对

    使用道具 举报

    该用户从未签到

    0

    主题

    1万

    帖子

    1万

    积分

    论坛元老

    Rank: 8Rank: 8

    积分
    18929
    发表于 2019-11-16 15:24:54 | 显示全部楼层
    楼主太厉害了!楼主,电影应该很好看我觉得蓝光电影下载真是个好地方!
    回复 支持 反对

    使用道具 举报

    该用户从未签到

    0

    主题

    1万

    帖子

    1万

    积分

    论坛元老

    Rank: 8Rank: 8

    积分
    18929
    发表于 2019-11-16 16:01:37 | 显示全部楼层
    回复 支持 反对

    使用道具 举报

    该用户从未签到

    0

    主题

    1万

    帖子

    1万

    积分

    论坛元老

    Rank: 8Rank: 8

    积分
    11457
    发表于 2019-11-16 16:02:19 | 显示全部楼层

    非常精彩的电影,下来收藏,感谢楼主
    回复 支持 反对

    使用道具 举报

    该用户从未签到

    0

    主题

    7059

    帖子

    6715

    积分

    论坛元老

    Rank: 8Rank: 8

    积分
    6715
    发表于 2019-11-16 16:02:20 | 显示全部楼层
    回复 支持 反对

    使用道具 举报

    该用户从未签到

    0

    主题

    1万

    帖子

    1万

    积分

    论坛元老

    Rank: 8Rank: 8

    积分
    18929
    发表于 2019-11-16 16:02:39 | 显示全部楼层
    这个帖子不回对不起自己!我想我是一天也不能离开蓝光电影网
    回复 支持 反对

    使用道具 举报

    该用户从未签到

    0

    主题

    1万

    帖子

    1万

    积分

    论坛元老

    Rank: 8Rank: 8

    积分
    18929
    发表于 2019-11-17 00:26:49 | 显示全部楼层
    回复 支持 反对

    使用道具 举报

    该用户从未签到

    0

    主题

    1万

    帖子

    1万

    积分

    论坛元老

    Rank: 8Rank: 8

    积分
    11457
    发表于 2019-11-17 03:18:13 | 显示全部楼层
    回复 支持 反对

    使用道具 举报

    懒得打字嘛,点击右侧快捷回复 【右侧内容,后台自定义】
    您需要登录后才可以回帖 登录 | 立即注册

    本版积分规则

    郑重声明,本站所有作品片源来自互联网公开渠道,均为网友上传交流学习,影视版权均归原电影公司所有,如有侵犯版权,请与 2322694662@qq.com 联系,我们将立即删除。

    小黑屋|手机版|Archiver|百度统计|投诉|蓝光电影下载

    GMT+8, 2020-4-6 06:16 , Processed in 0.018147 second(s), 21 queries , Gzip On, MemCached On.

    Powered by Discuz! X3.4

    © 2001-2013 Comsenz Inc.

    快速回复 返回顶部 返回列表