快捷导航
查看: 492|回复: 22

[剧情] 大唐玄奘 Xuan.Zang.2016.CHINESE.1080p.BluRay.x264.DTS-EPiC 9.89GB

[复制链接]
  • TA的每日心情
    开心
    2020-2-15 21:32
  • 签到天数: 240 天

    [LV.8]以坛为家I

    1万

    主题

    1万

    帖子

    3万

    积分

    管理员

    蓝光君

    Rank: 9Rank: 9Rank: 9

    积分
    37086

    活跃会员热心会员推广达人突出贡献优秀版主荣誉管理论坛元老

    QQ
    发表于 2019-11-16 10:30:35 | 显示全部楼层 |阅读模式
    d68541f892073.png.jpeg
    译  名 Xuan Zang
    片  名 大唐玄奘
    年  代 2016
    产  地 中国大陆
    类  别 历史
    语  言 汉语普通话
    上映日期 2016-04-29(中国大陆)
    IMDb评分  5.9/10 from 270 users
    IMDb链接  https://www.imdb.com/title/tt5684550
    豆瓣评分 5.3/10 from 20742 users
    豆瓣链接 https://movie.douban.com/subject/26389697/
    片  长 120分钟
    导  演 霍建起 Jianqi Huo
    编  剧 邹静之 Jingzhi Zou
    主  演 黄晓明 Xiaoming Huang
           徐峥 Zheng Xu
           蒲巴甲 Purba Rgyal
           罗晋 Jin Luo
           汤镇业 Ken Tong
           锦荣 Vivian Dawson
           谭凯 Kai Tan
           姜超 Chao Jiang
           赵亮 Liang Zhao
           车晓 Xiao Che
           楼佳悦 Artemis
           赵文瑄 Winston Chao


    标  签 宗教 | 历史 | 中国 | 2016 | 史实改编 | 宗教哲思 | 大陆 | 佛教

    简  介  

      影片讲述历史上的唐朝高僧玄奘历时17年,不畏艰难险阻,前往天竺取经的传奇故事。大唐贞观盛世,年轻的玄奘法师(黄晓明 饰)为求佛法真谛冒死偷渡出境,一路上遭遇千难万阻,天灾人祸,却也深得民间疾苦。官兵围堵、徒弟背叛、埋身沙海、断水绝粮,玄奘法师一心求法,最终抵达印度,在印度弘扬善念静心修佛,等到从无遮大会辩论成功回国之时,已经是年逾五十的老人了。

    获奖情况  

      第19届上海国际电影节(2016)
      电影频道传媒大奖 媒体关注影片

      第31届中国电影金鸡奖(2017)
      最佳摄影(提名) 孙明
      最佳美术(提名) 武明
      最佳音乐(提名) 王晓锋
      最佳录音(提名) 晁军

      第17届中国电影华表奖(2018)
      优秀故事片奖
      优秀电影音乐奖
      优秀摄影 (提名) 孙明

      第13届中国长春电影节(2016)
      金鹿奖 最佳华语故事片 霍建起
      金鹿奖 最佳男主角 黄晓明
      金鹿奖 最佳摄影 孙明
    1. Video
    2. ID                                       : 1
    3. Format                                   : AVC
    4. Format/Info                              : Advanced Video Codec
    5. Format profile                           : High@L4
    6. Format settings                          : CABAC / 5 Ref Frames
    7. Format settings, CABAC                   : Yes
    8. Format settings, Reference frames        : 5 frames
    9. Codec ID                                 : V_MPEG4/ISO/AVC
    10. Duration                                 : 1 h 59 min
    11. Bit rate                                 : 10.3 Mb/s
    12. Width                                    : 1 920 pixels
    13. Height                                   : 722 pixels
    14. Display aspect ratio                     : 2.659
    15. Frame rate mode                          : Constant
    16. Frame rate                               : 24.000 FPS
    17. Color space                              : YUV
    18. Chroma subsampling                       : 4:2:0
    19. Bit depth                                : 8 bits
    20. Scan type                                : Progressive
    21. Bits/(Pixel*Frame)                       : 0.310
    22. Stream size                              : 8.63 GiB (87%)
    23. Writing library                          : x264 core 148 r2705kMod 3f5ed56
    24. Encoding settings                        : cabac=1 / ref=5 / deblock=1:-3:-3 / analyse=0x3:0x133 / me=umh / subme=11 / psy=1 / fade_compensate=0.00 / psy_rd=0.90:0.00 / mixed_ref=1 / me_range=32 / chroma_me=1 / trellis=2 / 8x8dct=1 / cqm=0 / deadzone=21,11 / fast_pskip=0 / chroma_qp_offset=-2 / threads=12 / lookahead_threads=2 / sliced_threads=0 / nr=0 / decimate=0 / interlaced=0 / bluray_compat=0 / constrained_intra=0 / fgo=0 / bframes=8 / b_pyramid=2 / b_adapt=2 / b_bias=0 / direct=3 / weightb=1 / open_gop=0 / weightp=2 / keyint=240 / keyint_min=24 / scenecut=40 / intra_refresh=0 / rc_lookahead=60 / rc=crf / mbtree=0 / crf=15.8000 / qcomp=0.60 / qpmin=0 / qpmax=69 / qpstep=4 / vbv_maxrate=40000 / vbv_bufsize=30000 / crf_max=0.0 / nal_hrd=none / filler=0 / ip_ratio=1.40 / pb_ratio=1.30 / aq=1:0.90
    25. Language                                 : Chinese
    26. Default                                  : Yes
    27. Forced                                   : No

    28. Audio
    29. ID                                       : 2
    30. Format                                   : DTS
    31. Format/Info                              : Digital Theater Systems
    32. Codec ID                                 : A_DTS
    33. Duration                                 : 1 h 59 min
    34. Bit rate mode                            : Constant
    35. Bit rate                                 : 1 509 kb/s
    36. Channel(s)                               : 6 channels
    37. Channel layout                           : C L R Ls Rs LFE
    38. Sampling rate                            : 48.0 kHz
    39. Frame rate                               : 93.750 FPS (512 SPF)
    40. Bit depth                                : 16 bits
    41. Compression mode                         : Lossy
    42. Stream size                              : 1.26 GiB (13%)
    43. Language                                 : Chinese
    44. Default                                  : Yes
    45. Forced                                   : No

    46. Text
    47. ID                                       : 3
    48. Format                                   : UTF-8
    49. Codec ID                                 : S_TEXT/UTF8
    50. Codec ID/Info                            : UTF-8 Plain Text
    51. Duration                                 : 1 h 46 min
    52. Bit rate                                 : 30 b/s
    53. Count of elements                        : 845
    54. Stream size                              : 23.5 KiB (0%)
    55. Language                                 : English
    56. Default                                  : Yes
    57. Forced                                   : No

    58. Menu
    59. 00:00:00.000                             : en:00:00:00.000
    60. 00:08:04.833                             : en:00:08:04.833
    61. 00:15:27.208                             : en:00:15:27.208
    62. 00:23:49.708                             : en:00:23:49.708
    63. 00:32:56.917                             : en:00:32:56.917
    64. 00:40:40.917                             : en:00:40:40.917
    65. 00:56:05.167                             : en:00:56:05.167
    66. 01:05:30.292                             : en:01:05:30.292
    67. 01:20:09.167                             : en:01:20:09.167
    68. 01:31:05.042                             : en:01:31:05.042
    69. 01:45:01.208                             : en:01:45:01.208
    70. 01:52:53.208                             : en:01:52:53.208
    复制代码

    大唐玄奘 Xuan.Zang.2016.CHINESE.1080p.BluRay.x264.DTS-EPiC 9.89GB-2.png 大唐玄奘 Xuan.Zang.2016.CHINESE.1080p.BluRay.x264.DTS-EPiC 9.89GB-3.png 大唐玄奘 Xuan.Zang.2016.CHINESE.1080p.BluRay.x264.DTS-EPiC 9.89GB-4.png
    游客,如果您要查看本帖隐藏内容请回复




    大中午的快困死蓝光君了
    回复

    使用道具 举报

    该用户从未签到

    0

    主题

    795

    帖子

    548

    积分

    高级会员

    Rank: 4

    积分
    548
    发表于 2019-11-16 10:30:54 | 显示全部楼层

    是个好电影!必须要看的!多谢分享!
    回复 支持 反对

    使用道具 举报

    该用户从未签到

    0

    主题

    1万

    帖子

    1万

    积分

    论坛元老

    Rank: 8Rank: 8

    积分
    11457
    发表于 2019-11-16 10:31:16 | 显示全部楼层
    感谢楼主的无私分享!要想蓝光高清电影网好 就靠你我他
    回复 支持 反对

    使用道具 举报

    该用户从未签到

    0

    主题

    1080

    帖子

    973

    积分

    高级会员

    Rank: 4

    积分
    973
    发表于 2019-11-16 10:31:26 | 显示全部楼层
    回复 支持 反对

    使用道具 举报

    该用户从未签到

    0

    主题

    1万

    帖子

    1万

    积分

    论坛元老

    Rank: 8Rank: 8

    积分
    11457
    发表于 2019-11-16 10:51:07 | 显示全部楼层
    回复 支持 反对

    使用道具 举报

    该用户从未签到

    0

    主题

    1万

    帖子

    1万

    积分

    论坛元老

    Rank: 8Rank: 8

    积分
    11457
    发表于 2019-11-16 10:53:07 | 显示全部楼层
    回复 支持 反对

    使用道具 举报

    该用户从未签到

    0

    主题

    1万

    帖子

    1万

    积分

    论坛元老

    Rank: 8Rank: 8

    积分
    18929
    发表于 2019-11-16 16:05:01 | 显示全部楼层
    回复 支持 反对

    使用道具 举报

  • TA的每日心情
    无聊
    2020-1-13 18:18
  • 签到天数: 12 天

    [LV.3]偶尔看看II

    0

    主题

    17

    帖子

    90

    积分

    注册会员

    Rank: 2

    积分
    90
    发表于 2019-11-16 16:05:31 | 显示全部楼层
    楼主发贴辛苦了,谢谢楼主分享!我觉得蓝光电影网是注册对了!
    回复 支持 反对

    使用道具 举报

    该用户从未签到

    0

    主题

    1万

    帖子

    1万

    积分

    论坛元老

    Rank: 8Rank: 8

    积分
    18929
    发表于 2019-11-16 16:05:32 | 显示全部楼层
    回复 支持 反对

    使用道具 举报

    该用户从未签到

    0

    主题

    1万

    帖子

    1万

    积分

    论坛元老

    Rank: 8Rank: 8

    积分
    11457
    发表于 2019-11-16 16:05:44 | 显示全部楼层
    回复 支持 反对

    使用道具 举报

    懒得打字嘛,点击右侧快捷回复 【右侧内容,后台自定义】
    您需要登录后才可以回帖 登录 | 立即注册

    本版积分规则

    郑重声明,本站所有作品片源来自互联网公开渠道,均为网友上传交流学习,影视版权均归原电影公司所有,如有侵犯版权,请与 2322694662@qq.com 联系,我们将立即删除。

    小黑屋|手机版|Archiver|百度统计|投诉|蓝光电影下载

    GMT+8, 2020-4-6 06:51 , Processed in 0.042069 second(s), 23 queries , Gzip On, MemCached On.

    Powered by Discuz! X3.4

    © 2001-2013 Comsenz Inc.

    快速回复 返回顶部 返回列表