快捷导航
查看: 5744|回复: 7

[剧情] 人质们/飞向极乐园 Hostages.2017.1080p.BluRay.x264-USURY 7.65GB

[复制链接]
  • TA的每日心情

    2022-11-2 18:54
  • 签到天数: 127 天

    [LV.7]常住居民III

    2480

    主题

    127

    回帖

    5642

    积分

    发布组

    积分
    5642
    发表于 2021-7-22 22:07:03 | 显示全部楼层 |阅读模式
    1. 帖子完整标题:人质们/飞向极乐园 Hostages.2017.1080p.BluRay.x264-USURY 7.65GB
    复制代码
    人质们/飞向极乐园 Hostages.2017.1080p.BluRay.x264-USURY 7.65GB-1.png


    译  名 人质们/飞向极乐园(台)
    片  名 Hostages
    年  代 2017
    产  地 俄罗斯,格鲁吉亚
    类  别 剧情
    语  言 格鲁吉亚语
    上映日期 2017-02-10(柏林电影节)
    IMDb评分  6.1/10 from 1760 users
    IMDb链接  https://www.imdb.com/title/tt5207262/
    豆瓣评分 6.1/10 from 511 users
    豆瓣链接 https://movie.douban.com/subject/26964420/
    片  长 103分钟
    导  演 列佐·吉吉涅什维利 Rezo Gigineishvili
    编  剧 列佐·吉吉涅什维利 Rezo Gigineishvili
    主  演 阿福坦迪尔·马哈拉泽 Avtandil Makharadze
           伊拉克利·柯维利卡泽 Irakli Kvirikadze
           蒂娜婷·达拉齐施维利 Tinatin Dalakishvili
           梅拉布·尼尼泽 Merab Ninidze

    标  签 格鲁吉亚 | 真实改编 | 2017 | 俄罗斯 | 剧情 | 犯罪 | 前苏联 | 格鲁吉亚电影

    简  介

      改编自真实事件。1983年,当时的格鲁吉亚还是苏联加盟共和国。两个出身精英家庭的年轻人尼卡和安娜正在紧张地准备他们的婚礼。然而,对于他们两人和前来的朋友来说,这样一个盛大的婚礼事实上是只是他们计划的一部分——他们正在策划着从苏联逃跑。就在婚礼结束后的第二天,这群年轻人开始了他们最疯狂的计划:劫持一架当地从第比利斯飞往巴统的航班,迫使它降落在土耳其境内,这样就能来到不属于东区的国家。但随着飞机缓缓离开地平线,一切似乎都渐渐失去了掌控
    1. Video
    2. ID                                       : 1
    3. Format                                   : AVC
    4. Format/Info                              : Advanced Video Codec
    5. Format profile                           : High@L4
    6. Format settings                          : CABAC / 5 Ref Frames
    7. Format settings, CABAC                   : Yes
    8. Format settings, Reference frames        : 5 frames
    9. Codec ID                                 : V_MPEG4/ISO/AVC
    10. Duration                                 : 1 h 43 min
    11. Bit rate                                 : 9 042 kb/s
    12. Width                                    : 1 920 pixels
    13. Height                                   : 720 pixels
    14. Display aspect ratio                     : 2.667
    15. Frame rate mode                          : Constant
    16. Frame rate                               : 24.000 FPS
    17. Color space                              : YUV
    18. Chroma subsampling                       : 4:2:0
    19. Bit depth                                : 8 bits
    20. Scan type                                : Progressive
    21. Bits/(Pixel*Frame)                       : 0.273
    22. Stream size                              : 6.55 GiB (86%)
    23. Writing library                          : x264 core 155 r2901 7d0ff22
    24. Encoding settings                        : cabac=1 / ref=5 / deblock=1:-3:-3 / analyse=0x3:0x133 / me=umh / subme=9 / psy=1 / psy_rd=1.00:0.00 / mixed_ref=1 / me_range=16 / chroma_me=1 / trellis=2 / 8x8dct=1 / cqm=0 / deadzone=21,11 / fast_pskip=0 / chroma_qp_offset=-2 / threads=22 / lookahead_threads=1 / sliced_threads=0 / nr=0 / decimate=1 / interlaced=0 / bluray_compat=0 / constrained_intra=0 / bframes=3 / b_pyramid=2 / b_adapt=1 / b_bias=0 / direct=3 / weightb=1 / open_gop=0 / weightp=2 / keyint=240 / keyint_min=24 / scenecut=40 / intra_refresh=0 / rc_lookahead=50 / rc=2pass / mbtree=1 / bitrate=9042 / ratetol=1.0 / qcomp=0.60 / qpmin=0 / qpmax=69 / qpstep=4 / cplxblur=20.0 / qblur=0.5 / ip_ratio=1.40 / aq=1:1.00
    25. Language                                 : English
    26. Default                                  : Yes
    27. Forced                                   : No

    28. Audio
    29. ID                                       : 2
    30. Format                                   : DTS
    31. Format/Info                              : Digital Theater Systems
    32. Codec ID                                 : A_DTS
    33. Duration                                 : 1 h 43 min
    34. Bit rate mode                            : Constant
    35. Bit rate                                 : 1 509 kb/s
    36. Channel(s)                               : 6 channels
    37. Channel layout                           : C L R Ls Rs LFE
    38. Sampling rate                            : 48.0 kHz
    39. Frame rate                               : 93.750 FPS (512 SPF)
    40. Bit depth                                : 24 bits
    41. Compression mode                         : Lossy
    42. Stream size                              : 1.09 GiB (14%)
    43. Language                                 : Georgian
    44. Default                                  : Yes
    45. Forced                                   : No

    46. Text
    47. ID                                       : 3
    48. Format                                   : UTF-8
    49. Codec ID                                 : S_TEXT/UTF8
    50. Codec ID/Info                            : UTF-8 Plain Text
    51. Duration                                 : 1 h 36 min
    52. Bit rate                                 : 35 b/s
    53. Count of elements                        : 807
    54. Stream size                              : 25.3 KiB (0%)
    55. Title                                    : English
    56. Language                                 : English
    57. Default                                  : Yes
    58. Forced                                   : Yes

    59. Menu
    60. 00:00:00.000                             : en:00:00:00.000
    61. 00:02:01.250                             : en:00:02:01.250
    62. 00:15:40.250                             : en:00:15:40.250
    63. 00:28:47.292                             : en:00:28:47.292
    64. 00:44:00.125                             : en:00:44:00.125
    65. 00:55:02.792                             : en:00:55:02.792
    66. 01:07:50.083                             : en:01:07:50.083
    67. 01:18:44.375                             : en:01:18:44.375
    68. 01:31:25.000                             : en:01:31:25.000
    复制代码

    人质们/飞向极乐园 Hostages.2017.1080p.BluRay.x264-USURY 7.65GB-2.png
    本帖隐藏的内容需要VIP会员才可浏览,您需要升级才可浏览,点击这里升级VIP





    回复

    使用道具 举报

    该用户从未签到

    0

    主题

    2447

    回帖

    2689

    积分

    金牌会员

    Rank: 6Rank: 6

    积分
    2689
    发表于 2021-7-22 22:07:54 | 显示全部楼层
    回复 支持 反对

    使用道具 举报

    该用户从未签到

    0

    主题

    2391

    回帖

    2444

    积分

    金牌会员

    Rank: 6Rank: 6

    积分
    2444
    发表于 2021-7-22 22:28:18 | 显示全部楼层
    回复 支持 反对

    使用道具 举报

    该用户从未签到

    0

    主题

    6207

    回帖

    6324

    积分

    论坛元老

    Rank: 8Rank: 8

    积分
    6324
    发表于 2021-7-25 09:25:54 | 显示全部楼层

    非常精彩的电影,下来收藏,感谢楼主
    回复 支持 反对

    使用道具 举报

  • TA的每日心情
    慵懒
    2022-9-15 21:40
  • 签到天数: 1 天

    [LV.1]初来乍到

    0

    主题

    2万

    回帖

    2万

    积分

    论坛元老

    Rank: 8Rank: 8

    积分
    29175
    发表于 2021-7-25 12:02:06 | 显示全部楼层
    回复 支持 反对

    使用道具 举报

    该用户从未签到

    0

    主题

    6207

    回帖

    6324

    积分

    论坛元老

    Rank: 8Rank: 8

    积分
    6324
    发表于 2021-8-12 03:03:56 | 显示全部楼层
    回复 支持 反对

    使用道具 举报

  • TA的每日心情
    开心
    2023-5-8 11:52
  • 签到天数: 16 天

    [LV.4]偶尔看看III

    1

    主题

    2374

    回帖

    2959

    积分

    金牌会员

    Rank: 6Rank: 6

    积分
    2959
    发表于 2021-8-18 05:01:15 | 显示全部楼层
    这个帖子不回对不起自己!我想我是一天也不能离开蓝光电影网
    回复 支持 反对

    使用道具 举报

  • TA的每日心情
    开心
    2023-8-2 01:37
  • 签到天数: 6 天

    [LV.2]偶尔看看I

    1

    主题

    2671

    回帖

    2731

    积分

    金牌会员

    Rank: 6Rank: 6

    积分
    2731
    发表于 2023-7-10 12:36:32 | 显示全部楼层
    回复 支持 反对

    使用道具 举报

    懒得打字嘛,点击右侧快捷回复 【右侧内容,后台自定义】
    您需要登录后才可以回帖 登录 | 立即注册

    本版积分规则

    郑重声明,本站所有作品片源来自互联网公开渠道,均为网友上传交流学习,影视版权均归原电影公司所有,如有侵犯版权,请与 2322694662@qq.com 联系,我们将立即删除。

    小黑屋|手机版|Archiver|投诉|51la|蓝光电影下载

    GMT+8, 2024-3-2 01:10 , Processed in 0.140334 second(s), 39 queries , Gzip On.

    Powered by Discuz! X3.4

    © 2001-2013 Comsenz Inc.

    快速回复 返回顶部 返回列表