快捷导航
查看: 109|回复: 7

纽约!班克斯来袭! Banksy.Does.New.York.2014.1080p.BluRay.x264-BiPOLAR 5.46GB

[复制链接]
  • TA的每日心情
    开心
    2019-9-28 10:25
  • 签到天数: 231 天

    [LV.7]常住居民III

    6805

    主题

    7071

    帖子

    2万

    积分

    管理员

    蓝光君

    Rank: 9Rank: 9Rank: 9

    积分
    25302

    活跃会员热心会员推广达人突出贡献优秀版主荣誉管理论坛元老

    QQ
    发表于 2019-7-29 22:58:09 | 显示全部楼层 |阅读模式

    纽约!班克斯来袭! Banksy.Does.New.York.2014.1080p.BluRay.x264-BiPOLAR 5.46GB-1.png

    译  名 纽约!班克斯来袭!
    片  名 Banksy Does New York
    年  代 2014
    产  地 美国
    类  别 纪录片
    语  言 英语
    上映日期 2014-10-11
    IMDb评分  7.3/10 from 1798 users
    IMDb链接  http://www.imdb.com/title/tt3995006
    豆瓣评分 8.5/10 from 194 users
    豆瓣链接 https://movie.douban.com/subject/26214574/
    片  长 75分钟
    导  演 Chris Moukarbel

    标  签 纪录片 | Banksy | 艺术 | 美国 | Documentary | HBO | 行为艺术 | 2014

    简  介  

      这部由纽约电影制作人 Chris Moukarbel 所执导纪录片,完整记录了英国街头艺术家 Banksy 去年在纽约所进行的「Better Out Than In」艺术企划,而摄制团队也在这一个月内实时追踪了 Banksy 在纽约的动态,并最终剪辑成为这部影片,从而向这位神秘的艺术大师致敬。据悉《Banksy Does New York》纪录片将于 10 月 31 日在 HBO 正式上映

    Video
    ID                                       : 1
    Format                                   : AVC
    Format/Info                              : Advanced Video Codec
    Format profile                           : [email protected]
    Format settings, CABAC                   : Yes
    Format settings, ReFrames                : 4 frames
    Codec ID                                 : V_MPEG4/ISO/AVC
    Duration                                 : 1h 20mn
    Bit rate                                 : 8 963 Kbps
    Width                                    : 1 920 pixels
    Height                                   : 1 080 pixels
    Display aspect ratio                     : 16:9
    Frame rate mode                          : Constant
    Frame rate                               : 23.976 fps
    Color space                              : YUV
    Chroma subsampling                       : 4:2:0
    Bit depth                                : 8 bits
    Scan type                                : Progressive
    Bits/(Pixel*Frame)                       : 0.180
    Stream size                              : 5.03 GiB (92%)
    Writing library                          : x264 core 148 r2665 a01e339
    Encoding settings                        : cabac=1 / ref=4 / deblock=1:0:0 / analyse=0x3:0x133 / me=umh / subme=7 / psy=1 / psy_rd=1.00:0.00 / mixed_ref=1 / me_range=16 / chroma_me=1 / trellis=1 / 8x8dct=1 / cqm=0 / deadzone=21,11 / fast_pskip=0 / chroma_qp_offset=-2 / threads=18 / lookahead_threads=3 / sliced_threads=0 / nr=0 / decimate=1 / interlaced=0 / bluray_compat=0 / constrained_intra=0 / bframes=3 / b_pyramid=2 / b_adapt=2 / b_bias=0 / direct=3 / weightb=1 / open_gop=0 / weightp=2 / keyint=250 / keyint_min=23 / scenecut=40 / intra_refresh=0 / rc_lookahead=50 / rc=2pass / mbtree=1 / bitrate=8963 / ratetol=1.0 / qcomp=0.60 / qpmin=0 / qpmax=69 / qpstep=4 / cplxblur=20.0 / qblur=0.5 / ip_ratio=1.40 / aq=1:1.00
    Language                                 : English
    Default                                  : Yes
    Forced                                   : No

    Audio
    ID                                       : 2
    Format                                   : DTS
    Format/Info                              : Digital Theater Systems
    Mode                                     : 16
    Format settings, Endianness              : Big
    Codec ID                                 : A_DTS
    Duration                                 : 1h 20mn
    Bit rate mode                            : Constant
    Bit rate                                 : 768 Kbps
    Channel(s)                               : 2 channels
    Channel positions                        : Front: L R
    Sampling rate                            : 48.0 KHz
    Frame rate                               : 93.750 fps (512 spf)
    Bit depth                                : 24 bits
    Compression mode                         : Lossy
    Stream size                              : 442 MiB (8%)
    Language                                 : English
    Default                                  : Yes
    Forced                                   : No

    Menu
    00:00:00.000                             : en:00:00:00.000
    00:10:05.814                             : en:00:10:05.814
    00:19:42.556                             : en:00:19:42.556
    00:29:31.728                             : en:00:29:31.728
    00:40:06.988                             : en:00:40:06.988
    00:51:14.321                             : en:00:51:14.321
    01:01:06.538                             : en:01:01:06.538
    01:09:51.187                             : en:01:09:51.187
    纽约!班克斯来袭! Banksy.Does.New.York.2014.1080p.BluRay.x264-BiPOLAR 5.46GB-2.png
    游客,如果您要查看本帖隐藏内容请回复




    大中午的快困死蓝光君了
    回复

    使用道具 举报

    该用户从未签到

    0

    主题

    1013

    帖子

    8

    积分

    新手上路

    Rank: 1

    积分
    8
    发表于 2019-7-29 22:58:14 | 显示全部楼层
    这个帖子不回对不起自己!我想我是一天也不能离开蓝光电影网
    回复 支持 反对

    使用道具 举报

    该用户从未签到

    0

    主题

    1111

    帖子

    394

    积分

    中级会员

    Rank: 3Rank: 3

    积分
    394
    发表于 2019-7-30 03:01:41 | 显示全部楼层
    回复 支持 反对

    使用道具 举报

    该用户从未签到

    0

    主题

    1076

    帖子

    492

    积分

    中级会员

    Rank: 3Rank: 3

    积分
    492
    发表于 2019-8-19 05:13:36 | 显示全部楼层
    回复 支持 反对

    使用道具 举报

    该用户从未签到

    0

    主题

    2707

    帖子

    22

    积分

    新手上路

    Rank: 1

    积分
    22
    发表于 2019-8-27 02:34:25 | 显示全部楼层

    是个好电影!必须要看的!多谢分享!
    回复 支持 反对

    使用道具 举报

    该用户从未签到

    0

    主题

    1111

    帖子

    394

    积分

    中级会员

    Rank: 3Rank: 3

    积分
    394
    发表于 2019-9-14 12:12:02 | 显示全部楼层
    回复 支持 反对

    使用道具 举报

    该用户从未签到

    0

    主题

    1662

    帖子

    883

    积分

    高级会员

    Rank: 4

    积分
    883
    发表于 2019-9-14 12:14:08 | 显示全部楼层
    回复 支持 反对

    使用道具 举报

    该用户从未签到

    0

    主题

    6268

    帖子

    5105

    积分

    论坛元老

    Rank: 8Rank: 8

    积分
    5105
    发表于 5 天前 | 显示全部楼层
    回复 支持 反对

    使用道具 举报

    懒得打字嘛,点击右侧快捷回复 【右侧内容,后台自定义】
    您需要登录后才可以回帖 登录 | 立即注册

    本版积分规则

    郑重声明,本站所有作品片源来自互联网公开渠道,均为网友上传交流学习,影视版权均归原电影公司所有,如有侵犯版权,请与 2322694662@qq.com 联系,我们将立即删除。

    小黑屋|手机版|Archiver|百度统计|投诉|蓝光电影下载     

    GMT+8, 2019-10-24 10:38 , Processed in 0.051664 second(s), 22 queries , Gzip On, MemCache On.

    Powered by Discuz! X3.3

    © 2001-2013 Comsenz Inc.

    快速回复 返回顶部 返回列表