快捷导航
查看: 2309|回复: 7

[惊悚] 往事不堪回首/旋涡 Spiral.2007.1080p.BluRay.x264.DTS-FGT 8.71GB

[复制链接]
  • TA的每日心情

    2022-11-20 15:48
  • 签到天数: 138 天

    [LV.7]常住居民III

    2527

    主题

    2667

    帖子

    6290

    积分

    发布组

    积分
    6290
    发表于 2021-7-8 17:19:32 | 显示全部楼层 |阅读模式
    1. 帖子完整标题:往事不堪回首/旋涡 Spiral.2007.1080p.BluRay.x264.DTS-FGT 8.71GB
    复制代码
    往事不堪回首/旋涡 Spiral.2007.1080p.BluRay.x264.DTS-FGT 8.71GB-1.png


    译  名 往事不堪回首/旋涡/鬼影螺旋
    片  名 Spiral
    年  代 2007
    产  地 美国
    类  别 剧情 / 惊悚
    语  言 英语
    上映日期 2007-07-08
    IMDb评分  6.4/10 from 3544 users
    IMDb链接  https://www.imdb.com/title/tt0491162/
    豆瓣评分 6.6/10 from 226 users
    豆瓣链接 https://movie.douban.com/subject/2353700/
    片  长 90分钟
    导  演 乔·大卫·摩尔  Joel David Moore / 亚当·格林 Adam Green / 亚当·格林 Adam Green
    编  剧 Jeremy Danial Boreing / 乔·大卫·摩尔  Joel David Moore
    主  演 扎克瑞·莱维 Zachary Levi
           爱波·塔布琳 Amber Tamblyn
           Nick Sowell
           Matt Kimmel
           Kai Evans
           莉莉·旺德比尔特 Rileah Vanderbilt
           Reuben Rox
           David Muller
           托德·罗宾森 Todd Robinson
           乔·大卫·摩尔  Joel David Moore
           Lori Yohe
           Jeremy Danial Boreing
           翠西亚·希弗 Tricia Helfer

    标  签 惊悚 | 美国 | 悬疑 | 恐怖 | 美国电影 | 我看过的电影 | 2007 | 电影

    简  介

      消瘦苍白、一脸病态的梅森(乔·摩尔 Joel Moore 饰)是某公司的电话销售员,他每天的工作就是给不同的陌生人致电,一遍遍重复着无聊枯燥的话语。日常生活中,梅森患有哮喘,精神容易紧张,他几乎不与人交流,专横跋扈的老板伯克利(扎克瑞·莱维 Zachary Levi 饰)似乎是他仅有的交谈对象。某天,梅森与公司的新人爱波(爱波·塔布琳 Amber Tamblyn 饰)相识。这个女孩刚来几天便被伯克利开除,不过梅森却与之展开交往。爱波开朗乐观的性格慢慢影响着有些自闭的梅森,他们的生活仿佛也从此发生翻天覆地的变化……
      
      本片荣获2007年奥斯汀奇幻电影节新浪潮奖第二名、2007年圣·巴巴拉国际电影节金像奖。
    1. Video
    2. ID                                       : 1
    3. Format                                   : AVC
    4. Format/Info                              : Advanced Video Codec
    5. Format profile                           : High@L4
    6. Format settings                          : CABAC / 4 Ref Frames
    7. Format settings, CABAC                   : Yes
    8. Format settings, Reference frames        : 4 frames
    9. Codec ID                                 : V_MPEG4/ISO/AVC
    10. Duration                                 : 1 h 30 min
    11. Bit rate                                 : 13.0 Mb/s
    12. Width                                    : 1 920 pixels
    13. Height                                   : 1 080 pixels
    14. Display aspect ratio                     : 16:9
    15. Frame rate mode                          : Constant
    16. Frame rate                               : 23.976 FPS
    17. Color space                              : YUV
    18. Chroma subsampling                       : 4:2:0
    19. Bit depth                                : 8 bits
    20. Scan type                                : Progressive
    21. Bits/(Pixel*Frame)                       : 0.261
    22. Stream size                              : 8.05 GiB (92%)
    23. Writing library                          : x264 core 102 r1666 d058f37
    24. Encoding settings                        : cabac=1 / ref=4 / deblock=1:-3:-3 / analyse=0x3:0x113 / me=umh / subme=9 / psy=1 / psy_rd=1.05:0.10 / mixed_ref=1 / me_range=32 / chroma_me=1 / trellis=2 / 8x8dct=1 / cqm=2 / deadzone=21,11 / fast_pskip=0 / chroma_qp_offset=-2 / threads=12 / sliced_threads=0 / nr=0 / decimate=1 / interlaced=0 / constrained_intra=0 / bframes=4 / b_pyramid=2 / b_adapt=2 / b_bias=0 / direct=3 / weightb=1 / open_gop=0 / weightp=2 / keyint=250 / keyint_min=25 / scenecut=40 / intra_refresh=0 / rc_lookahead=50 / rc=2pass / mbtree=1 / bitrate=12983 / ratetol=2.0 / qcomp=0.70 / qpmin=10 / qpmax=51 / qpstep=4 / cplxblur=20.0 / qblur=0.5 / vbv_maxrate=50000 / vbv_bufsize=50000 / ip_ratio=1.40 / aq=1:0.90 / nal_hrd=none
    25. Language                                 : English
    26. Default                                  : Yes
    27. Forced                                   : No

    28. Audio
    29. ID                                       : 2
    30. Format                                   : DTS
    31. Format/Info                              : Digital Theater Systems
    32. Codec ID                                 : A_DTS
    33. Duration                                 : 1 h 30 min
    34. Bit rate mode                            : Constant
    35. Bit rate                                 : 768 kb/s
    36. Channel(s)                               : 6 channels
    37. Channel layout                           : C L R Ls Rs LFE
    38. Sampling rate                            : 48.0 kHz
    39. Frame rate                               : 93.750 FPS (512 SPF)
    40. Bit depth                                : 24 bits
    41. Compression mode                         : Lossy
    42. Stream size                              : 498 MiB (6%)
    43. Language                                 : English
    44. Default                                  : Yes
    45. Forced                                   : No
    复制代码

    往事不堪回首/旋涡 Spiral.2007.1080p.BluRay.x264.DTS-FGT 8.71GB-2.png
    往事不堪回首/旋涡 Spiral.2007.1080p.BluRay.x264.DTS-FGT 8.71GB-3.png
    往事不堪回首/旋涡 Spiral.2007.1080p.BluRay.x264.DTS-FGT 8.71GB-4.png

    本帖隐藏的内容需要VIP会员才可浏览,您需要升级才可浏览,点击这里升级VIP




    回复

    使用道具 举报

    该用户从未签到

    0

    主题

    667

    帖子

    605

    积分

    高级会员

    Rank: 4

    积分
    605
    发表于 2021-7-8 17:20:38 | 显示全部楼层
    楼主太厉害了!楼主,电影应该很好看我觉得蓝光电影下载真是个好地方!
    回复 支持 反对

    使用道具 举报

    该用户从未签到

    0

    主题

    2830

    帖子

    2651

    积分

    金牌会员

    Rank: 6Rank: 6

    积分
    2651
    发表于 2021-7-12 01:57:51 | 显示全部楼层
    回复 支持 反对

    使用道具 举报

    该用户从未签到

    0

    主题

    667

    帖子

    605

    积分

    高级会员

    Rank: 4

    积分
    605
    发表于 2021-7-15 09:24:24 | 显示全部楼层
    回复 支持 反对

    使用道具 举报

  • TA的每日心情
    慵懒
    2022-9-15 21:40
  • 签到天数: 1 天

    [LV.1]初来乍到

    0

    主题

    2万

    帖子

    2万

    积分

    论坛元老

    Rank: 8Rank: 8

    积分
    21425
    发表于 2021-7-15 20:18:25 | 显示全部楼层
    回复 支持 反对

    使用道具 举报

    该用户从未签到

    0

    主题

    1927

    帖子

    1779

    积分

    金牌会员

    Rank: 6Rank: 6

    积分
    1779
    发表于 2021-7-26 08:55:57 | 显示全部楼层
    这个帖子不回对不起自己!我想我是一天也不能离开蓝光电影网
    回复 支持 反对

    使用道具 举报

  • TA的每日心情
    慵懒
    2022-9-15 21:40
  • 签到天数: 1 天

    [LV.1]初来乍到

    0

    主题

    2万

    帖子

    2万

    积分

    论坛元老

    Rank: 8Rank: 8

    积分
    21425
    发表于 2021-7-26 20:30:57 | 显示全部楼层
    回复 支持 反对

    使用道具 举报

    该用户从未签到

    0

    主题

    4997

    帖子

    4516

    积分

    论坛元老

    Rank: 8Rank: 8

    积分
    4516
    发表于 2021-7-29 23:24:33 | 显示全部楼层
    回复 支持 反对

    使用道具 举报

    懒得打字嘛,点击右侧快捷回复 【右侧内容,后台自定义】
    您需要登录后才可以回帖 登录 | 立即注册

    本版积分规则

    郑重声明,本站所有作品片源来自互联网公开渠道,均为网友上传交流学习,影视版权均归原电影公司所有,如有侵犯版权,请与 2322694662@qq.com 联系,我们将立即删除。

    小黑屋|手机版|Archiver|百度统计|投诉|蓝光电影下载

    GMT+8, 2022-12-8 13:40 , Processed in 0.082758 second(s), 21 queries , Gzip On, MemCached On.

    Powered by Discuz! X3.4

    © 2001-2013 Comsenz Inc.

    快速回复 返回顶部 返回列表